<?xml version="1.0" standalone="no"?>
<!DOCTYPE svg PUBLIC "-//W3C//DTD SVG 1.1//EN" "http://www.w3.org/Graphics/SVG/1.1/DTD/svg11.dtd" >
<svg xmlns="http://www.w3.org/2000/svg">
<metadata>Generated by IcoMoon</metadata>
<defs>
<font id="icomoon" horiz-adv-x="1024">
<font-face units-per-em="1024" ascent="960" descent="-64" />
<missing-glyph horiz-adv-x="1024" />
<glyph unicode="&#x20;" horiz-adv-x="512" d="" />
<glyph unicode="&#xe900;" glyph-name="arrow-up" d="M207.646 295.729c0 8.75 2.431 16.372 7.292 22.865l3.208 3.76 272.625 278.25c4 4.5 8.313 7.687 12.938 9.562s9.688 2.813 15.187 2.813c5.5 0 10.563-0.938 15.188-2.813 3.469-1.406 6.762-3.551 9.879-6.434l275.684-281.379c7-7.25 10.5-16.125 10.5-26.625 0-7-1.562-13.375-4.687-19.125s-7.563-10.312-13.313-13.687c-5.75-3.375-12.125-5.063-19.125-5.063-8.542 0-16.215 2.691-23.021 8.073l-3.979 3.552-247.125 253.125-247.125-253.125c-7.75-7.75-16.75-11.625-27-11.625-6.75 0-13.062 1.688-18.937 5.063s-10.375 7.937-13.5 13.687c-3.125 5.75-4.688 12.125-4.688 19.125z" />
<glyph unicode="&#xe901;" glyph-name="logo" d="M894.847 873.514v-562.284l-0.176-9.917c-5.307-151.363-130.254-273.327-285.532-278.558l-10.396-0.175-185.933 0.080c-155.254 5.206-280.416 127.103-285.784 278.438l-0.179 10.132 0.063 171.485 0.172 9.925c5.255 151.475 130.344 273.412 285.512 278.586l10.388 0.171 173.391 0.052c173.811 1.835 272.648 33.939 296.511 96.312l1.963 5.754zM714.238 602.877l-17.594-1.988c-28.558-2.948-59.076-4.78-91.666-5.436l-24.833-0.27-157.257 0.093-9.246-0.381c-21.196-1.638-39.772-8.475-56.407-19.641-28.187-19.395-46.948-49.287-49.484-84.407l-0.294-8.195h0.063l-0.127-171.546 0.391-8.96c1.44-17.629 6.8-33.518 15.53-47.862l4.643-7.044 4.765-6.196c19.805-24.102 48.44-39.891 81.794-42.132l8.434-0.275h175.698l9.243 0.365c18.175 1.384 34.506 6.66 49.259 15.187l7.246 4.532 6.346 4.66c24.682 19.364 40.805 47.316 43.139 79.574l0.293 8.152 0.063 291.771z" />
<glyph unicode="&#xe902;" glyph-name="apple" d="M534.803 654.864c17.222 0 35.605 5.125 55.15 15.376s35.742 23.167 48.589 38.749c12.028 14.488 21.8 31.095 29.318 49.82s11.276 37.928 11.276 57.61c0 5.741-0.41 10.934-1.23 15.581-19.408-0.82-39.637-6.697-60.686-17.632s-38.407-24.602-52.075-41.004c-10.934-12.301-20.707-27.746-29.318-46.334s-12.916-37.723-12.916-57.405c0-3.007 0.205-5.809 0.615-8.406s0.752-4.442 1.025-5.536c3.28-0.547 6.697-0.82 10.251-0.82zM413.022 64c15.855 0 29.591 2.665 41.209 7.996s23.919 10.593 36.903 15.786c12.985 5.194 29.318 7.791 48.999 7.791 19.955 0 35.947-2.529 47.974-7.586s23.645-10.183 34.853-15.376c11.208-5.194 25.559-7.791 43.054-7.791 17.222 0 32.803 4.647 46.744 13.941s26.789 21.185 38.544 35.673c11.754 14.488 23.099 29.523 34.033 45.104 12.301 18.042 22.279 35.195 29.933 51.46s13.258 29.728 16.812 40.389c3.554 10.661 5.467 16.401 5.741 17.222-0.82 0.273-6.424 3.212-16.812 8.816s-22.279 14.42-35.673 26.447c-13.395 12.028-25.081 27.951-35.058 47.769s-14.966 43.942-14.966 72.372c0 24.602 3.964 45.924 11.891 63.966s17.153 32.94 27.678 44.694c10.524 11.754 20.023 20.707 28.498 26.857s13.395 9.636 14.761 10.456c-13.121 18.588-27.267 33.076-42.439 43.464s-30.138 17.905-44.899 22.552c-14.761 4.647-27.883 7.517-39.364 8.611s-19.955 1.64-25.422 1.64c-19.408 0-37.45-2.939-54.125-8.816s-31.846-11.754-45.514-17.632c-13.668-5.877-25.559-8.816-35.673-8.816-10.661 0-22.415 2.802-35.263 8.406s-26.721 11.139-41.619 16.607c-14.898 5.467-30.821 8.201-47.769 8.201-31.983 0-62.667-8.679-92.053-26.037s-53.51-42.986-72.372-76.882c-18.862-33.896-28.293-75.584-28.293-125.061 0-31.163 3.622-62.257 10.866-93.284s16.948-60.412 29.113-88.158c12.164-27.746 25.627-52.143 40.389-73.192 19.135-26.789 37.792-49.751 55.97-68.886s39.295-28.703 63.351-28.703z" />
<glyph unicode="&#xe903;" glyph-name="university" d="M244.644 299.607c6.012-6.457 12.691-12.636 20.039-18.536 4.898-3.934 10.143-7.694 15.734-11.281l8.647-5.251-0.002-34.81 0.503-0.175c5.121-1.948 9.63-4.871 13.526-8.767 6.494-6.494 10.282-14.844 11.365-25.049l0.325-6.346v-82.494c0-12.914-3.896-23.268-11.689-31.061-6.494-6.494-14.689-10.282-24.585-11.365l-6.142-0.325h-11.356c-12.914 0-23.268 3.896-31.061 11.689-6.494 6.494-10.282 14.766-11.365 24.817l-0.325 6.244v82.494c0 13.137 3.896 23.602 11.689 31.395 2.598 2.598 5.48 4.762 8.647 6.494l4.963 2.273 1.078 0.363 0.007 69.69zM821.772 492.65v-103.536c0-24.27-7.403-47.092-22.21-68.467s-35.848-40.19-63.123-56.444c-27.275-16.254-59.895-29.001-97.858-38.241s-80.212-13.86-126.748-13.86c-46.090 0-88.005 4.676-125.746 14.027-32.349 8.016-60.731 18.567-85.146 31.654l-11.877 6.755v188.368l118.565-54.44c37.852-17.367 72.586-25.828 104.204-25.383 28.302-0.396 58.979 6.245 92.032 19.924l12.506 5.459 205.401 94.184zM202.228 492.316l42.416-19.371v-173.339c-13.805 14.25-24.325 29.279-31.562 45.088-5.789 12.647-9.263 24.653-10.42 36.017l-0.434 8.403v103.202zM511.833 831.98c13.137 0.223 26.663-1.392 40.579-4.843 11.133-2.761 23.085-6.84 35.857-12.237l9.732-4.295 308.603-140.942c10.91-4.898 18.982-11.411 24.214-19.538s7.849-16.532 7.849-25.216c0-8.684-2.616-16.978-7.849-24.882-4.186-6.323-10.189-11.756-18.009-16.298l-6.205-3.24-308.603-141.276c-16.477-7.57-31.673-13.081-45.589-16.532s-27.442-5.065-40.579-4.843c-12.914-0.223-26.274 1.392-40.078 4.843-11.044 2.761-22.943 6.84-35.696 12.237l-9.726 4.295-136.6 62.455 192.042 89.508c9.797-2.895 20.262-4.342 31.395-4.342 11.801 0 22.934 1.614 33.399 4.843s18.982 7.793 25.55 13.693c6.568 5.9 9.853 12.413 9.853 19.538 0 7.348-3.284 13.86-9.853 19.538s-15.085 10.075-25.55 13.192c-10.465 3.117-21.598 4.676-33.399 4.676s-22.989-1.559-33.566-4.676c-10.576-3.117-19.204-7.57-25.884-13.359s-10.020-12.246-10.020-19.371c0-1.484 0.297-2.969 0.891-4.453l1.113-2.227-202.395-94.518-125.913 56.778c-10.91 5.121-18.982 11.634-24.214 19.538s-7.849 16.198-7.849 24.882c0 8.684 2.616 17.089 7.849 25.216 4.186 6.502 10.189 11.97 18.009 16.405l6.205 3.133 308.937 140.942c16.254 7.57 31.339 13.081 45.255 16.532s27.331 5.065 40.245 4.843z" />
<glyph unicode="&#xe904;" glyph-name="building" d="M573.826 64c18.465 0 33.034 5.944 43.705 17.831s16.007 27.797 16.007 47.73v636.878c0 20.173-5.336 36.143-16.007 47.91s-25.24 17.651-43.705 17.651h-428.78c-18.465 0-33.034-5.884-43.705-17.651s-16.007-27.737-16.007-47.91v-636.878c0-19.932 5.336-35.842 16.007-47.73s25.24-17.831 43.705-17.831h428.78zM309.796 623.069h-71.943c-9.832 0-14.748 5.163-14.748 15.49v69.884c0 10.326 4.916 15.49 14.748 15.49h71.943c10.312 0 15.468-5.163 15.468-15.49v-69.884c0-10.326-5.156-15.49-15.468-15.49zM483.538 623.069h-71.583c-10.072 0-15.108 5.163-15.108 15.49v69.884c0 10.326 5.036 15.49 15.108 15.49h71.583c10.312 0 15.468-5.163 15.468-15.49v-69.884c0-10.326-5.156-15.49-15.468-15.49zM872.75 64c18.226 0 32.674 5.944 43.346 17.831s16.007 27.797 16.007 47.73v459.647c0 19.932-5.336 35.842-16.007 47.73s-25.12 17.831-43.346 17.831h-189.93v-525.208c0-12.248-1.499-23.835-4.496-34.762s-7.374-21.193-13.13-30.799h207.556zM309.796 476.098h-71.943c-9.832 0-14.748 5.163-14.748 15.49v69.884c0 10.326 4.916 15.49 14.748 15.49h71.943c10.312 0 15.468-5.163 15.468-15.49v-69.884c0-10.326-5.156-15.49-15.468-15.49zM483.538 476.098h-71.583c-10.072 0-15.108 5.163-15.108 15.49v69.884c0 10.326 5.036 15.49 15.108 15.49h71.583c10.312 0 15.468-5.163 15.468-15.49v-69.884c0-10.326-5.156-15.49-15.468-15.49zM836.778 459.527h-59.713c-8.393 0-12.59 4.323-12.59 12.968v57.636c0 8.405 4.197 12.608 12.59 12.608h59.713c8.393 0 12.59-4.203 12.59-12.608v-57.636c0-8.645-4.197-12.968-12.59-12.968zM309.796 329.126h-71.943c-9.832 0-14.748 5.163-14.748 15.49v69.884c0 10.326 4.916 15.49 14.748 15.49h71.943c10.312 0 15.468-5.163 15.468-15.49v-69.884c0-10.326-5.156-15.49-15.468-15.49zM483.538 329.126h-71.583c-10.072 0-15.108 5.163-15.108 15.49v69.884c0 10.326 5.036 15.49 15.108 15.49h71.583c10.312 0 15.468-5.163 15.468-15.49v-69.884c0-10.326-5.156-15.49-15.468-15.49zM836.778 317.959h-59.713c-8.393 0-12.59 4.203-12.59 12.608v57.636c0 8.405 4.197 12.608 12.59 12.608h59.713c8.393 0 12.59-4.203 12.59-12.608v-57.636c0-8.405-4.197-12.608-12.59-12.608zM487.135 121.996h-252.16v117.073c0 8.405 2.518 15.069 7.554 19.992s11.631 7.385 19.784 7.385h197.484c8.393 0 15.048-2.462 19.964-7.385s7.374-11.587 7.374-19.992v-117.073zM836.778 176.030h-59.713c-8.393 0-12.59 4.203-12.59 12.608v57.636c0 8.645 4.197 12.968 12.59 12.968h59.713c8.393 0 12.59-4.323 12.59-12.968v-57.636c0-8.405-4.197-12.608-12.59-12.608z" />
<glyph unicode="&#xe905;" glyph-name="education" d="M698.62 832c37.101 0 64.989-9.667 83.664-29.002 16.977-17.577 26.237-42.833 27.78-75.767l0.232-10.111v-401.138c0-11.802-1.36-21.909-4.081-30.321s-6.431-15.568-11.13-21.469c-4.7-5.901-9.77-11.362-15.212-16.385-14.593-14.564-23.559-30.070-26.899-46.517s-1.855-31.513 4.452-45.199c5.406-11.73 13.856-20.739 25.35-27.027l6.001-2.917c5.936-2.511 11.069-6.529 15.397-12.053s6.493-11.802 6.493-18.833c0-8.789-2.968-16.196-8.904-22.223-4.749-4.821-10.369-7.714-16.859-8.678l-5.031-0.362h-455.606c-36.607 0-64.247 9.479-82.922 28.437-16.977 17.235-26.237 42.2-27.78 74.895l-0.232 10.041v539.747c0 37.917 9.399 66.542 28.197 85.877 17.089 17.577 41.639 27.165 73.651 28.763l9.827 0.24h373.612zM678.61 234.667l-8.62-1.214-3.181-0.11h-352.913c-17.947 0-32.083-5.811-42.409-17.434s-15.488-26.703-15.488-45.241c0-20.009 4.61-35.678 13.829-47.007 8.067-9.913 19.663-15.489 34.788-16.728l6.698-0.266h371.351c-9.342 18.244-14.505 38.694-15.488 61.352s2.827 44.874 11.432 66.648zM320.192 746.667c-5.894 0-10.955-2.010-15.183-6.031-3.383-3.217-5.412-7.018-6.089-11.404l-0.254-3.399v-428.029c0-5.605 2.114-10.417 6.342-14.438s9.289-6.031 15.183-6.031c5.638 0 10.571 2.010 14.799 6.031 3.171 3.016 5.153 6.477 5.946 10.383l0.396 4.055v428.029c0 5.848-2.114 10.783-6.342 14.804s-9.161 6.031-14.799 6.031zM614.095 533.333h-204.19c-7.111 0-13.206-2.092-18.286-6.275s-7.619-9.098-7.619-14.745c0-6.065 2.54-11.19 7.619-15.373 4.063-3.346 8.777-5.354 14.141-6.024l4.145-0.251h204.19c7.111 0 13.206 2.092 18.286 6.275s7.619 9.307 7.619 15.373c0 5.647-2.54 10.562-7.619 14.745-4.063 3.346-8.777 5.354-14.141 6.024l-4.145 0.251zM701.213 661.333h-250.426c-6.621 0-12.297-2.092-17.026-6.275s-7.094-9.203-7.094-15.059c0-5.856 2.365-10.876 7.094-15.059 3.784-3.346 8.173-5.354 13.167-6.024l3.859-0.251h250.426c6.385 0 12.001 2.092 16.849 6.275s7.272 9.203 7.272 15.059c0 5.856-2.424 10.876-7.272 15.059-3.636 3.137-7.704 5.098-12.204 5.882l-4.644 0.392z" />
<glyph unicode="&#xe906;" glyph-name="tourism" d="M512 832c-212.064 0-384-171.936-384-384s171.936-384 384-384c62.746 0 121.843 15.379 174.163 42.067-27.034 132-84.787 255.379-170.851 360.749-6.374-2.659-10.81-4.502-10.81-4.502-65.222-27.034-96.307-102.067-69.312-167.251l-59.126-24.509c-39.158 94.598 3.312 202.752 94.618 246.442-1.219 1.248-2.4 2.506-3.619 3.754-99.811-6.682-179.059-89.808-179.059-191.318h-64.003c0 111.562 71.501 206.198 171.062 241.258-27.754 7.901-57.562 6.614-84.442-4.502-15.005-6.25-29.126-15.437-41.376-27.696l-45.245 45.264c71.318 71.318 184.31 73.997 259.757 9.629 43.315 92.438 151.93 135.379 247.123 95.962l-24.509-59.117c-15.965 6.595-32.534 9.715-48.806 9.715-50.246 0-98.035-29.75-118.445-78.998 37.69 37.69 93.226 46.906 139.661 27.686 15.024-6.25 29.155-15.466 41.376-27.686l-45.245-45.254c-5.971 5.933-12.912 10.598-20.602 13.786-8.035 3.35-16.435 4.973-24.749 4.973-16.656 0-32.938-6.499-45.187-18.749l-14.688-14.688c82.781-103.43 142.723-225.562 173.875-358.781 92.467 70.109 152.438 180.797 152.438 305.77 0 212.064-171.936 384-384 384z" />
<glyph unicode="&#xe907;" glyph-name="restaurant" d="M987.897 211.692v-59.077l-32.492-11.815c-30.326-8.271-52.933-37.127-55.812-69.756l-0.311-7.044h-768c0 33.083-20.585 63.593-49.747 74.719l-6.376 2.081-32.492 11.815v59.077h945.231zM515.282 832c47.824 0 84.931-34.83 88.357-81.525l0.258-7.090v-38.4c196.677-40.492 348.041-214.091 354.262-420.966l0.199-13.249v-29.538h-886.154v29.538c0 208.246 147.267 385.34 341.97 431.451l12.491 2.764v38.4c0 50.215 38.4 88.615 88.615 88.615zM515.282 772.923c-16.112 0-27.341-9.765-29.25-24.856l-0.289-4.683v-32.492l-9.627-2.188-13.631-2.123-6.28-1.596-29.538-8.862c-126.359-48.821-219.214-198.154-235.133-380.138l-1.175-15.677h118.154c8.862 230.4 97.477 413.538 206.769 413.538 6.646 0 14.954 0 22.431-1.246l7.108-1.708v32.492c0 17.723-11.815 29.538-29.538 29.538z" />
<glyph unicode="&#xe908;" glyph-name="briefcase" d="M665.84 832c30.982 0 55.286-8.28 72.914-24.839 15.865-14.903 24.59-34.891 26.177-59.962l0.264-8.545-0.015-40.463h88.553c41.398 0 72.38-10.149 92.945-30.448 18.852-18.607 29.063-45.854 30.634-81.742l0.214-10.002v-389.809c0-41.131-10.283-71.779-30.848-91.944-18.852-18.484-46.456-28.497-82.813-30.037l-10.132-0.21h-644.607c-41.131 0-72.046 10.082-92.745 30.247-18.974 18.484-29.252 45.778-30.833 81.879l-0.216 10.064v389.809c0 40.864 10.35 71.445 31.049 91.743 18.974 18.607 46.532 28.686 82.675 30.236l10.070 0.211h88.936l0.003 40.463c0 29.112 8.881 51.948 26.642 68.507 15.788 14.719 36.693 22.897 62.715 24.532l9.998 0.307h268.419zM913.014 455.24l-10.602-3.266c-49.486-14.772-101.235-26.313-155.245-34.622-20.575-3.165-41.362-5.862-62.359-8.089l-31.654-2.99-14.972-1.111 0.015-32.279c0-27.421-12.913-42.045-38.738-43.873l-5.732-0.196h-124.595c-27.421 0-42.045 12.796-43.873 38.389l-0.196 5.68-0.002 32.25-15.016 1.141c-31.846 2.638-63.23 6.331-94.152 11.079-45.095 6.924-88.591 16.093-130.489 27.505l-24.947 7.117-10.639 3.266 0.015-265.844c0-20.565 5.141-35.923 15.424-46.072 8.997-8.881 21.522-13.876 37.574-14.986l7.095-0.238h643.005c19.764 0 34.721 5.075 44.87 15.224 8.881 8.881 13.876 21.749 14.986 38.604l0.238 7.468-0.012 265.844zM852.933 634.091h-643.005c-19.497 0-34.387-5.075-44.67-15.224-8.997-8.881-14.058-21.749-15.183-38.604l-0.241-7.468-0.015-50.539 9.837-3.363c48.679-16.088 100.023-28.702 154.033-37.842 69.442-11.752 142.089-17.628 217.941-17.628 75.585 0 148.098 5.876 217.54 17.628 45.009 7.617 88.166 17.646 129.472 30.087l24.561 7.754 9.81 3.363 0.012 50.539c0 20.565-5.075 35.923-15.224 46.072-8.881 8.881-21.442 13.876-37.684 14.986l-7.186 0.238zM661.834 772.307h-260.407c-11.752 0-21.3-3.405-28.645-10.216-6.121-5.676-9.691-12.974-10.711-21.895l-0.306-5.548-0.027-36.457h339.738l0.020 36.457c0 11.485-3.606 20.632-10.817 27.443-6.009 5.676-13.688 8.986-23.036 9.932l-5.809 0.284z" />
<glyph unicode="&#xe909;" glyph-name="search" d="M836.597 64c10.183 0 19.235 2.334 27.156 7.001s14.073 10.961 18.457 18.882c4.385 7.92 6.577 16.831 6.577 26.731 0 6.789-1.202 13.436-3.607 19.943s-6.152 12.305-11.244 17.397v0l-181.285 181.656 3.745 5.159c10.45 14.892 19.599 30.704 27.449 47.437l4.553 10.15c16.124 37.622 24.186 77.931 24.186 120.928s-8.062 83.377-24.186 121.14c-16.124 37.764-38.541 71.001-67.253 99.713s-61.949 51.2-99.713 67.465c-37.764 16.265-78.144 24.398-121.14 24.398s-83.306-8.133-120.928-24.398c-37.622-16.265-70.86-38.754-99.713-67.465s-51.341-61.878-67.465-99.501c-16.124-37.622-24.186-78.073-24.186-121.352 0-42.997 8.062-83.306 24.186-120.928s38.541-70.789 67.253-99.501c28.712-28.712 61.949-51.2 99.713-67.465s78.144-24.398 121.14-24.398c42.997 0 83.377 8.133 121.14 24.398 17.165 7.393 33.395 16.072 48.69 26.037l6.33 4.269 182.805-182.422c4.073-4.073 8.599-7.332 13.578-9.776l3.819-1.68c6.506-2.546 13.154-3.819 19.943-3.819zM440.292 282.944c-32.248 0-62.727 6.152-91.439 18.457s-53.887 29.419-75.527 51.341c-21.64 21.923-38.612 47.098-50.917 75.527s-18.457 58.767-18.457 91.014c0 32.53 6.152 63.081 18.457 91.651s29.277 53.675 50.917 75.315c21.64 21.64 46.815 38.683 75.527 51.129s59.191 18.67 91.439 18.67c32.53 0 63.081-6.223 91.651-18.67s53.675-29.49 75.315-51.129c21.64-21.64 38.612-46.745 50.917-75.315s18.457-59.12 18.457-91.651c0-32.248-6.152-62.586-18.457-91.014s-29.277-53.604-50.917-75.527c-21.64-21.923-46.745-39.036-75.315-51.341s-59.12-18.457-91.651-18.457z" />
<glyph unicode="&#xe90a;" glyph-name="tag" d="M454.071 831.959c29.020-0.36 43.599-3.449 64.659-22.911l5.412-5.215 334.392-333.67c47.494-47.494 50.392-97.317 5.5-145.956l-5.861-6.073-216.669-216.308c-48.88-48.534-98.094-50.142-146.042-6.104l-5.987 5.742-333.67 334.031c-20.429 20.712-25.921 34.291-27.337 57.026l-0.433 13.407-0.036 137.569c0 33.867 7.473 46.562 29.647 69.309l83.743 84.165c24.814 24.478 36.55 33.7 67.591 34.892l7.521 0.136 137.569-0.041zM456.975 773.138h-141.557c-9.028 0-15.297-2.759-21.316-7.649l-3.601-3.185-92.806-92.806c-6.019-6.019-9.529-12.037-10.533-19.937l-0.301-4.98v-141.557c0-9.63 2.759-15.999 7.649-21.826l3.185-3.452 331.142-331.503c22.344-22.344 45.957-24.058 69.055-3.951l4.612 4.313 210.891 210.891c23.021 23.021 23.825 46.677 4.495 69.182l-4.134 4.485-331.503 330.781c-7.222 7.222-14.083 11.195-25.278 11.195zM357.308 649.998c27.084 0 47.667-20.945 47.667-47.306 0-26.722-20.584-47.667-47.667-47.667s-47.667 20.945-47.667 47.667c0 26.361 20.584 47.306 47.667 47.306z" />
<glyph unicode="&#xe90b;" glyph-name="download" d="M698.123 64c69.103 0 104.011 36.039 104.011 106.316v338.050c0 38.923-4.987 56.221-28.496 80.728l-209.446 214.074c-22.797 23.426-41.319 28.832-75.871 28.832h-170.976c-68.391 0-104.011-35.679-104.011-105.956v-555.728c0-70.277 35.264-106.316 104.011-106.316h380.779zM695.985 108.689h-376.504c-40.963 0-61.979 21.984-61.979 62.709v553.565c0 39.643 21.016 62.709 62.335 62.709h166.346v-216.957c0-41.085 20.66-60.546 60.198-60.546h211.94v-338.771c0-40.725-21.372-62.709-62.335-62.709zM749.416 552.334h-198.404c-16.385 0-23.153 6.487-23.153 23.065v203.262l221.557-226.328zM507.911 162.748c5.343 0 9.974 2.162 15.317 7.568l107.216 102.712c4.987 4.685 8.193 9.37 8.193 16.578 0 11.533-8.549 19.822-19.591 19.822-5.343 0-11.042-2.523-14.604-6.487l-30.989-32.075-46.306-47.572 1.781 65.592v152.447c0 11.533-9.617 20.903-21.016 20.903s-21.016-9.37-21.016-20.903v-152.447l1.781-65.592-46.306 47.572-30.989 32.075c-3.918 3.964-9.617 6.487-14.96 6.487-11.398 0-19.591-8.289-19.591-19.822 0-7.208 3.562-11.893 8.193-16.578l107.216-102.712c5.699-5.406 10.33-7.568 15.673-7.568z" />
<glyph unicode="&#xe90c;" glyph-name="Dashboard" d="M395.55 414.447c52.752 0 80.328-24.778 82.725-77.003l0.171-7.648v-181.144c0-54.427-25.177-82.078-75.532-84.48l-7.365-0.171h-184.653c-52.752 0-80.328 25.177-82.725 77.058l-0.171 7.593v181.144c0 54.846 25.177 82.116 75.532 84.482l7.365 0.169h184.653zM813.103 414.447c52.752 0 80.328-24.778 82.725-77.003l0.171-7.648v-181.144c0-54.427-25.177-82.078-75.532-84.48l-7.365-0.171h-184.653c-52.752 0-80.328 25.177-82.725 77.058l-0.171 7.593v181.144c0 54.846 25.177 82.116 75.532 84.482l7.365 0.169h184.653zM394.234 352.164h-182.46c-13.027 0-20.014-5.684-21.281-18.012l-0.211-4.357v-181.144c0-13.256 5.545-20.62 16.943-22.093l4.549-0.276h182.46c12.866 0 20.187 5.891 21.655 17.674l0.276 4.695v181.144c0 15.351-7.456 22.369-21.93 22.369zM812.226 352.164h-182.46c-13.421 0-20.448-5.684-21.719-18.012l-0.211-4.357v-181.144c0-13.256 5.545-20.62 17.251-22.093l4.68-0.276h182.46c12.866 0 19.84 5.891 21.231 17.674l0.261 4.695v181.144c0 15.351-7.018 22.369-21.492 22.369zM395.55 832c52.752 0 80.328-24.778 82.725-77.003l0.171-7.648v-181.144c0-54.427-25.177-82.078-75.532-84.48l-7.365-0.171h-184.653c-52.752 0-80.328 25.177-82.725 77.058l-0.171 7.593v181.144c0 54.846 25.177 82.116 75.532 84.482l7.365 0.169h184.653zM813.103 832c52.752 0 80.328-24.778 82.725-77.003l0.171-7.648v-181.144c0-54.427-25.177-82.078-75.532-84.48l-7.365-0.171h-184.653c-52.752 0-80.328 25.177-82.725 77.058l-0.171 7.593v181.144c0 54.846 25.177 82.116 75.532 84.482l7.365 0.169h184.653zM394.234 769.718h-182.46c-12.866 0-19.84-5.545-21.231-17.251l-0.261-4.68v-181.583c0-13.256 5.545-20.62 16.943-22.093l4.549-0.276h182.46c12.866 0 20.187 5.891 21.655 17.674l0.276 4.695v181.583c0 14.913-7.456 21.93-21.93 21.93zM812.226 769.718h-182.46c-13.421 0-20.448-5.684-21.719-17.693l-0.211-4.238v-181.583c0-13.256 5.545-20.62 17.251-22.093l4.68-0.276h182.46c12.866 0 19.84 5.891 21.231 17.674l0.261 4.695v181.583c0 14.913-7.018 21.93-21.492 21.93z" />
<glyph unicode="&#xe90d;" glyph-name="comment" d="M729.362 832c106.606 0 166.656-58.286 170.197-160.639l0.166-9.724v-283.809c0-105.472-56.82-166.587-160.506-170.194l-9.858-0.169h-231.959l-127.090-113.056c-23.391-20.662-36.646-30.408-56.138-30.408-25.106 0-40.364 16.64-42.287 43.265l-0.207 5.856v94.343h-16.763c-105.472 0-165.854 57.919-169.417 160.606l-0.167 9.758v283.809c0 105.472 56.82 166.587 160.506 170.194l9.858 0.169h473.665zM728.192 768.065h-471.326c-70.472 0-104.541-34.241-107.057-99.259l-0.151-7.95v-282.25c0-67.474 31.358-104.31 98.926-107.044l8.282-0.164h44.832c18.94 0 27.398-6.552 28.676-23.859l0.173-4.99v-106.039l117.344 116.564c13.168 13.515 22.948 17.481 39.744 18.195l6.648 0.128h233.909c69.611 0 104.372 34.132 107.041 98.947l0.167 8.261v282.25c0 70.173-34.696 107.208-107.208 107.208zM549.642 417.592c12.085 0 21.831-9.746 21.831-22.221 0-10.742-7.701-19.637-17.9-21.481l-3.932-0.351h-245.214c-11.695 0-21.442 9.746-21.442 21.831 0 11.089 7.393 20.022 17.523 21.87l3.918 0.351h245.214zM680.241 536.495c12.085 0 21.831-9.746 21.831-21.442 0-11.089-7.701-20.022-17.9-21.87l-3.932-0.351h-375.813c-11.695 0-21.442 9.746-21.442 22.221 0 10.396 7.393 19.252 17.523 21.091l3.918 0.35h375.813zM680.241 655.399c12.085 0 21.831-9.746 21.831-21.442 0-11.089-7.701-20.022-17.9-21.87l-3.932-0.351h-375.813c-11.695 0-21.442 9.746-21.442 22.221 0 10.396 7.393 19.252 17.523 21.091l3.918 0.35h375.813z" />
<glyph unicode="&#xe90e;" glyph-name="menu" d="M170.667 192h682.667c23.467 0 42.667 19.2 42.667 42.667s-19.2 42.667-42.667 42.667h-682.667c-23.467 0-42.667-19.2-42.667-42.667s19.2-42.667 42.667-42.667zM170.667 405.333h682.667c23.467 0 42.667 19.2 42.667 42.667s-19.2 42.667-42.667 42.667h-682.667c-23.467 0-42.667-19.2-42.667-42.667s19.2-42.667 42.667-42.667zM128 661.333c0-23.467 19.2-42.667 42.667-42.667h682.667c23.467 0 42.667 19.2 42.667 42.667s-19.2 42.667-42.667 42.667h-682.667c-23.467 0-42.667-19.2-42.667-42.667z" />
<glyph unicode="&#xe90f;" glyph-name="trash" d="M662.65 64c25.564 0 46.123 7.416 61.679 22.248s23.936 35.15 25.142 60.955l23.514 494.877h39.069c7.959 0 14.711 2.713 20.258 8.139s8.32 12.239 8.32 20.439c0 7.717-2.773 14.289-8.32 19.715s-12.3 8.139-20.258 8.139l-153.748-0.021 0.003 51.752c0 25.564-7.778 45.581-23.333 60.051s-37.2 21.705-64.935 21.705h-129.869c-27.493 0-49.017-7.235-64.573-21.705s-23.333-34.487-23.333-60.051l-0.013-51.752-153.37 0.021c-7.717 0-14.35-2.713-19.896-8.139s-8.32-11.998-8.32-19.715c0-8.2 2.773-15.013 8.32-20.439s12.179-8.139 19.896-8.139h39.069l23.514-495.239c1.206-25.564 9.586-45.762 25.142-60.594s36.236-22.248 62.041-22.248h314.001zM598.592 698.492h-186.662l0.025 48.496c0 9.164 2.954 16.52 8.863 22.067s13.686 8.32 23.333 8.32h121.911c9.888 0 17.786-2.773 23.695-8.32s8.863-12.902 8.863-22.067l-0.028-48.496zM656.138 120.795h-301.34c-9.888 0-18.027 3.256-24.418 9.767s-9.828 14.711-10.31 24.599l-23.152 486.919h416.377l-22.429-486.919c-0.482-10.129-3.859-18.389-10.129-24.78s-14.47-9.586-24.599-9.586zM404.359 177.59c6.994 0 12.541 1.99 16.641 5.969s6.029 9.225 5.788 15.736l-10.491 361.752c0 6.512-2.11 11.697-6.331 15.555s-9.466 5.788-15.736 5.788c-6.994 0-12.601-1.99-16.821-5.969s-6.21-9.225-5.969-15.736l10.129-361.39c0.241-6.753 2.412-12.058 6.512-15.917s9.526-5.788 16.279-5.788zM505.649 177.59c6.753 0 12.3 1.99 16.641 5.969s6.512 9.104 6.512 15.374v361.752c0 6.512-2.171 11.757-6.512 15.736s-9.888 5.969-16.641 5.969c-6.994 0-12.601-1.99-16.821-5.969s-6.331-9.225-6.331-15.736v-361.752c0-6.27 2.11-11.395 6.331-15.374s9.828-5.969 16.821-5.969zM606.578 177.59c6.753 0 12.179 1.929 16.279 5.788s6.27 9.044 6.512 15.555l10.129 361.752c0.482 6.512-1.387 11.757-5.607 15.736s-9.828 5.969-16.821 5.969c-6.27 0-11.516-1.929-15.736-5.788s-6.451-9.164-6.692-15.917l-10.129-361.39c-0.482-6.512 1.326-11.757 5.426-15.736s9.647-5.969 16.641-5.969z" />
<glyph unicode="&#xe910;" glyph-name="exclamation" d="M820.911 64c68.897 0 111.856 49.444 111.856 111.856 0 18.643-4.863 37.691-14.995 55.118l-312.469 544.287c-21.074 36.88-58.36 56.739-96.051 56.739-38.096 0-75.382-19.859-96.456-56.739l-312.469-544.692c-10.132-17.427-14.995-36.070-14.995-54.712 0-62.413 42.959-111.856 111.856-111.856h623.721zM820.101 127.628h-622.506c-27.964 0-46.607 23.101-46.607 48.228 0 7.295 1.216 15.806 5.269 24.317l312.063 544.287c8.916 15.401 25.127 22.696 40.933 22.696s31.206-6.89 40.122-22.696l311.658-544.692c4.458-8.106 6.484-16.616 6.484-23.911 0-25.127-19.453-48.228-47.417-48.228zM509.253 337.157c19.453 0 30.396 11.348 30.801 32.422l6.079 213.581c0.405 20.669-15.806 36.070-37.285 36.070-21.885 0-37.285-14.995-36.88-35.664l5.269-213.986c0.405-20.669 11.753-32.422 32.017-32.422zM509.253 205.442c23.101 0 43.77 18.643 43.77 42.149 0 23.911-20.264 42.149-43.77 42.149-23.911 0-43.77-18.643-43.77-42.149 0-23.101 20.264-42.149 43.77-42.149z" />
<glyph unicode="&#xe911;" glyph-name="idea" d="M633.94 237.821c7.442 0 13.395 2.233 17.86 6.698s6.698 10.312 6.698 17.542v46.884c0 15.309 3.827 29.927 11.482 43.854s17.116 28.12 28.385 42.578c11.269 14.458 22.591 30.246 33.967 47.362s20.89 36.625 28.545 58.525c7.654 21.9 11.482 47.203 11.482 75.907 0 37.847-6.166 72.452-18.498 103.814s-29.927 58.259-52.784 80.691c-22.857 22.432-50.073 39.761-81.648 51.987s-66.605 18.339-105.090 18.339c-38.485 0-73.568-6.113-105.249-18.339s-58.897-29.555-81.648-51.987c-22.751-22.432-40.346-49.329-52.784-80.691s-18.658-65.967-18.658-103.814c0-28.704 3.88-54.007 11.641-75.907s17.276-41.409 28.545-58.525c11.269-17.116 22.538-32.904 33.807-47.362s20.731-28.651 28.385-42.578c7.654-13.927 11.482-28.545 11.482-43.854v-46.884c0-7.229 2.286-13.076 6.857-17.542s10.472-6.698 17.701-6.698h239.522zM596.601 298.402h-164.896l0.030 12.774c0 19.774-3.774 37.9-11.322 54.379s-16.957 32.372-28.226 47.681c-11.269 15.309-22.485 30.99-33.648 47.043s-20.571 33.542-28.226 52.465c-7.654 18.924-11.482 40.399-11.482 64.425 0 38.485 8.080 72.133 24.239 100.944s38.91 51.243 68.252 67.296c29.342 16.053 63.681 24.080 103.017 24.080 39.123 0 73.302-8.027 102.538-24.080s52.040-38.485 68.412-67.296c16.372-28.811 24.558-62.458 24.558-100.944 0-24.027-3.827-45.502-11.482-64.425s-17.116-36.412-28.385-52.465c-11.269-16.053-22.538-31.734-33.807-47.043s-20.678-31.203-28.226-47.681c-7.548-16.478-11.322-34.605-11.322-54.379l-0.024-12.774zM626.924 146.286c8.93 0 16.638 3.243 23.123 9.728s9.728 14.193 9.728 23.123c0 8.93-3.243 16.638-9.728 23.123s-14.193 9.728-23.123 9.728h-225.169c-9.143 0-16.904-3.243-23.282-9.728s-9.568-14.193-9.568-23.123c0-8.93 3.189-16.638 9.568-23.123s14.14-9.728 23.282-9.728h225.169zM514.339 64c24.452 0 44.651 5.209 60.598 15.628s24.877 24.133 26.791 41.143h-174.777c1.701-17.010 10.472-30.724 26.312-41.143s36.199-15.628 61.076-15.628z" />
<glyph unicode="&#xe912;" glyph-name="Info" d="M511.624 832c210.071 0 384.376-173.929 384.376-384 0-209.694-173.929-384-384-384-209.694 0-384 174.306-384 384 0 210.071 173.929 384 383.624 384zM511.624 768c-177.694 0-319.247-142.306-319.247-320s141.929-320 319.624-320c177.694 0 320.376 142.306 320.001 320-0.378 177.694-142.684 320-320.378 320zM512.333 533.333c7.333 0 12.889-2.621 16.667-7.863 3.022-4.194 4.836-9.362 5.44-15.506l0.227-4.791v-183.223h41.667c5.778 0 10.722-2.133 14.833-6.4s6.167-9.448 6.167-15.543c0-6.583-2.056-12.008-6.167-16.274-3.289-3.413-7.111-5.461-11.467-6.144l-3.367-0.256h-128.667c-6 0-11 2.133-15 6.4s-6 9.691-6 16.274c0 6.095 2 11.276 6 15.543 3.2 3.413 7.040 5.461 11.52 6.144l3.48 0.256h41.333v166.766h-36.667c-5.778 0-10.722 2.133-14.833 6.4s-6.167 9.691-6.167 16.274c0 6.095 2.056 11.276 6.167 15.543 3.289 3.413 7.111 5.461 11.467 6.144l3.367 0.256h60zM512.185 661.333c11.821 0 21.857-4.107 30.107-12.322s12.375-18.33 12.375-30.345c0-11.77-4.125-21.824-12.375-30.161s-18.286-12.506-30.107-12.506c-11.821 0-21.918 4.169-30.291 12.506s-12.56 18.391-12.56 30.161c0 12.015 4.187 22.13 12.56 30.345s18.47 12.322 30.291 12.322z" />
<glyph unicode="&#xe913;" glyph-name="user" d="M512 64c-52.578 0-102.030 10.018-148.355 30.054s-87.099 47.729-122.321 83.079c-35.222 35.35-62.915 76.187-83.079 122.512s-30.245 95.777-30.245 148.355c0 52.578 10.082 102.030 30.245 148.355s47.856 87.163 83.079 122.512c35.222 35.35 76.060 63.043 122.512 83.079s95.968 30.054 148.546 30.054c52.578 0 102.030-10.018 148.355-30.054s87.099-47.729 122.321-83.079c35.222-35.35 62.851-76.187 82.887-122.512s30.054-95.777 30.054-148.355c0-52.578-10.018-102.030-30.054-148.355s-47.729-87.163-83.079-122.512c-35.35-35.35-76.187-63.043-122.512-83.079s-95.777-30.054-148.355-30.054zM264.734 222.207l2.884 3.874c7.948 9.992 18.326 19.965 31.134 29.919 23.482 18.249 53.344 33.372 89.587 45.368s77.464 17.994 123.661 17.994c45.942 0 87.035-5.998 123.278-17.994s66.169-27.055 89.779-45.176c12.878-9.885 23.344-19.769 31.4-29.654l2.953-3.782 5.234 5.836c23.066 26.521 41.647 56.331 55.743 89.431 17.228 40.455 25.842 83.781 25.842 129.978s-8.614 89.523-25.842 129.978c-17.228 40.455-41.093 76.060-71.593 106.816s-65.978 54.748-106.433 71.976c-40.455 17.228-83.781 25.842-129.978 25.842-46.453 0-89.842-8.614-130.169-25.842s-75.868-41.22-106.624-71.976c-30.756-30.756-54.812-66.361-72.167-106.816s-26.034-83.781-26.034-129.978c0-46.197 8.614-89.523 25.842-129.978 14.096-33.099 32.677-62.909 55.743-89.431l5.761-6.385zM512 384.83c-24.502 0-46.58 5.662-66.233 16.987s-35.286 26.767-46.899 46.327c-11.613 19.56-17.42 41.58-17.42 66.059 0 22.878 5.87 43.925 17.611 63.142s27.438 34.602 47.091 46.155c19.653 11.553 41.603 17.33 65.85 17.33s46.261-5.777 66.042-17.33c19.781-11.553 35.541-26.938 47.282-46.155s17.484-40.265 17.228-63.142c-0.255-24.479-6.126-46.441-17.611-65.887s-27.055-34.831-46.708-46.155c-19.653-11.324-41.731-17.101-66.233-17.33z" />
<glyph unicode="&#xe914;" glyph-name="arrow-downward" d="M466.048 708.333v-428.186l-187.068 187.068c-14.95 14.95-39.484 14.95-54.434 0s-14.95-39.1 0-54.050l252.618-252.618c14.95-14.95 39.1-14.95 54.050 0l252.618 252.618c14.95 14.95 14.95 39.1 0 54.050s-39.1 14.95-54.050 0l-187.068-187.068v428.186c0 21.083-17.25 38.334-38.334 38.334s-38.334-17.25-38.334-38.334z" />
<glyph unicode="&#xe915;" glyph-name="arrow-filled-left" horiz-adv-x="1067" d="M896 448.376c0-210.071-173.929-384.376-384-384.376-209.694 0-384 173.929-384 384 0 209.694 174.306 384 384 384 210.071 0 384-173.929 384-383.624zM691.573 448.101c0 12.371-9.857 22.493-21.905 22.493h-244.678l106.896 109.766c8.543 8.772 8.543 23.168 0 31.94s-22.343 8.772-30.886 0l-144.353-148.23c-8.543-8.772-8.543-22.943 0-31.715l144.353-148.23c8.543-8.772 22.343-8.772 30.886 0s8.543 22.943 0 31.715l-106.896 109.767h244.678c12.048 0 21.905 10.122 21.905 22.493z" />
<glyph unicode="&#xe916;" glyph-name="arrow-filled-right" horiz-adv-x="1067" d="M128 448.376c0-210.071 173.929-384.376 384-384.376 209.694 0 384 173.929 384 384 0 209.694-174.306 384-384 384-210.071 0-384-173.929-384-383.624zM332.427 448.101c0 12.371 9.857 22.493 21.905 22.493h244.678l-106.896 109.766c-8.543 8.772-8.543 23.168 0 31.94s22.343 8.772 30.886 0l144.353-148.23c8.543-8.772 8.543-22.943 0-31.715l-144.353-148.23c-8.543-8.772-22.343-8.772-30.886 0s-8.543 22.943 0 31.715l106.896 109.767h-244.678c-12.048 0-21.905 10.122-21.905 22.493z" />
<glyph unicode="&#xe917;" glyph-name="arrow-filled-down" horiz-adv-x="1067" d="M511.624 832c210.071 0 384.376-173.929 384.376-384 0-209.694-173.929-384-384-384-209.694 0-384 174.306-384 384 0 210.071 173.929 384 383.624 384zM511.899 627.573c-12.371 0-22.493-9.857-22.493-21.905v-244.678l-109.766 106.896c-8.772 8.543-23.168 8.543-31.94 0s-8.772-22.343 0-30.886l148.23-144.353c8.772-8.543 22.943-8.543 31.715 0l148.23 144.353c8.772 8.543 8.772 22.343 0 30.886s-22.943 8.543-31.715 0l-109.767-106.896v244.678c0 12.048-10.122 21.905-22.493 21.905z" />
<glyph unicode="&#xe918;" glyph-name="arrow-filled-up" horiz-adv-x="1067" d="M511.624 64c210.071 0 384.376 173.929 384.376 384 0 209.694-173.929 384-384 384-209.694 0-384-174.306-384-384 0-210.071 173.929-384 383.624-384zM511.899 268.427c-12.371 0-22.493 9.857-22.493 21.905v244.678l-109.766-106.896c-8.772-8.543-23.168-8.543-31.94 0s-8.772 22.343 0 30.886l148.23 144.353c8.772 8.543 22.943 8.543 31.715 0l148.23-144.353c8.772-8.543 8.772-22.343 0-30.886s-22.943-8.543-31.715 0l-109.767 106.896v-244.678c0-12.048-10.122-21.905-22.493-21.905z" />
<glyph unicode="&#xe919;" glyph-name="close-filled" d="M512 832c212.077 0 384-171.923 384-384s-171.923-384-384-384c-212.077 0-384 171.923-384 384s171.923 384 384 384zM417.923 589.115c-12.989 12.989-34.049 12.989-47.038 0-11.808-11.808-12.882-30.287-3.22-43.308l3.22-3.731 94.066-94.046-94.066-94.107-3.22-3.731c-8.695-11.719-8.695-27.858 0-39.577l3.22-3.731 3.731-3.22c11.719-8.695 27.858-8.695 39.577 0l3.731 3.22 94.046 94.084 94.107-94.084c12.989-12.989 34.049-12.989 47.038 0 11.808 11.808 12.882 30.287 3.22 43.308l-3.22 3.731-94.084 94.107 94.084 94.046 3.22 3.731c8.695 11.719 8.695 27.858 0 39.577l-3.22 3.731-3.731 3.22c-11.719 8.695-27.858 8.695-39.577 0l-3.731-3.22-94.107-94.066-94.046 94.066z" />
<glyph unicode="&#xe91a;" glyph-name="close-outline" horiz-adv-x="1067" d="M511.795 832c52.758 0 102.304-9.972 148.639-29.917s87.201-47.607 122.601-82.988c35.4-35.381 63.077-76.226 83.033-122.536s29.933-95.693 29.933-148.149c0-52.73-9.978-102.25-29.933-148.559s-47.633-87.155-83.033-122.536c-35.4-35.381-76.267-63.112-122.601-83.193s-95.744-30.122-148.229-30.122c-52.758 0-102.304 10.041-148.639 30.122s-87.133 47.812-122.396 83.193c-35.263 35.381-62.941 76.226-83.033 122.536s-30.138 95.829-30.138 148.559c0 52.457 9.978 101.84 29.933 148.149s47.633 87.155 83.033 122.536c35.4 35.381 76.267 63.044 122.601 82.988s95.744 29.917 148.229 29.917zM511.795 791.428c-47.291 0-91.712-8.879-133.262-26.638s-78.044-42.348-109.48-73.767c-31.436-31.419-55.97-67.893-73.602-109.422s-26.447-85.925-26.447-133.191c0-47.539 8.816-92.073 26.447-133.601s42.166-78.070 73.602-109.626c31.436-31.556 67.93-56.145 109.48-73.767s86.108-26.433 133.672-26.433c47.564 0 92.122 8.811 133.672 26.433s77.975 42.211 109.275 73.767c31.3 31.556 55.902 68.098 73.807 109.626s26.721 86.062 26.465 133.601c0 47.266-8.902 91.663-26.67 133.191s-42.371 78.002-73.807 109.422c-31.436 31.419-67.93 56.009-109.48 73.767s-86.108 26.638-133.672 26.638zM417.923 589.115l94.046-94.066 94.107 94.066c11.808 11.808 30.287 12.882 43.308 3.22l3.731-3.22c11.808-11.808 12.882-30.287 3.22-43.308l-3.22-3.731-94.084-94.046 94.084-94.107c12.989-12.989 12.989-34.049 0-47.038s-34.049-12.989-47.038 0l-94.107 94.084-94.046-94.084c-11.808-11.808-30.287-12.882-43.308-3.22l-3.731 3.22c-11.808 11.808-12.882 30.287-3.22 43.308l3.22 3.731 94.066 94.107-94.066 94.046c-12.989 12.989-12.989 34.049 0 47.038s34.049 12.989 47.038 0z" />
<glyph unicode="&#xe91b;" glyph-name="close" horiz-adv-x="1067" d="M782.539 150.518c6.579 1.579 12.369 4.869 17.37 9.869s8.29 10.79 9.869 17.37c1.579 6.579 1.579 13.159 0 19.738s-4.737 12.238-9.474 16.975l-233.524 233.516 233.524 233.493c4.737 4.737 7.895 10.396 9.474 16.975s1.579 13.225 0 19.936c-1.579 6.711-4.869 12.435-9.869 17.172-5 5-10.856 8.29-17.567 9.869s-13.29 1.579-19.738 0c-6.448-1.579-12.040-4.737-16.778-9.474l-233.528-233.533-233.48 233.533c-5 4.737-10.79 7.895-17.37 9.474s-13.159 1.645-19.738 0.197c-6.579-1.447-12.369-4.803-17.37-10.067-4.737-5-7.895-10.79-9.474-17.37s-1.579-13.159 0-19.738c1.579-6.579 4.737-12.238 9.474-16.975l233.475-233.493-233.475-233.516c-4.737-4.737-7.961-10.396-9.672-16.975s-1.776-13.225-0.197-19.936c1.579-6.711 4.869-12.435 9.869-17.172 5-5 10.79-8.29 17.37-9.869s13.159-1.579 19.738 0c6.579 1.579 12.369 4.737 17.37 9.474l233.48 233.511 233.528-233.511c4.737-4.737 10.396-7.895 16.975-9.474s13.159-1.579 19.738 0z" />
<glyph unicode="&#xe91c;" glyph-name="check-disabled" d="M512 853.333c-223.859 0-405.333-181.474-405.333-405.333s181.474-405.333 405.333-405.333c223.859 0 405.333 181.474 405.333 405.333s-181.474 405.333-405.333 405.333zM512 810.667c200.295 0 362.667-162.371 362.667-362.667s-162.371-362.667-362.667-362.667c-200.295 0-362.667 162.371-362.667 362.667s162.371 362.667 362.667 362.667z" />
<glyph unicode="&#xe91d;" glyph-name="arrow-left" horiz-adv-x="1067" d="M658.583 124.167c-8.75 0-16.372 2.431-22.865 7.292l-3.76 3.208-278.25 272.625c-4.5 4-7.687 8.313-9.562 12.938s-2.813 9.688-2.813 15.187c0 5.5 0.938 10.563 2.813 15.188 1.406 3.469 3.551 6.762 6.434 9.879l281.379 275.684c7.25 7 16.125 10.5 26.625 10.5 7 0 13.375-1.562 19.125-4.687s10.312-7.563 13.687-13.313c3.375-5.75 5.063-12.125 5.063-19.125 0-8.542-2.691-16.215-8.073-23.021l-3.552-3.979-253.125-247.125 253.125-247.125c7.75-7.75 11.625-16.75 11.625-27 0-6.75-1.688-13.062-5.063-18.937s-7.937-10.375-13.687-13.5c-5.75-3.125-12.125-4.688-19.125-4.688z" />
<glyph unicode="&#xe91e;" glyph-name="arrow-right" d="M379.208 124.167c8.75 0 16.372 2.431 22.865 7.292l3.76 3.208 278.25 272.625c4.5 4 7.687 8.313 9.562 12.938s2.813 9.688 2.813 15.187c0 5.5-0.938 10.563-2.813 15.188-1.406 3.469-3.551 6.762-6.434 9.879l-281.379 275.684c-7.25 7-16.125 10.5-26.625 10.5-7 0-13.375-1.562-19.125-4.687s-10.312-7.563-13.687-13.313c-3.375-5.75-5.063-12.125-5.063-19.125 0-8.542 2.691-16.215 8.073-23.021l3.552-3.979 253.125-247.125-253.125-247.125c-7.75-7.75-11.625-16.75-11.625-27 0-6.75 1.688-13.062 5.063-18.937s7.937-10.375 13.687-13.5c5.75-3.125 12.125-4.688 19.125-4.688z" />
<glyph unicode="&#xe91f;" glyph-name="arrow-down" d="M207.646 575.104c0-8.75 2.431-16.372 7.292-22.865l3.208-3.76 272.625-278.25c4-4.5 8.313-7.687 12.938-9.562s9.688-2.813 15.187-2.813c5.5 0 10.563 0.938 15.188 2.813 3.469 1.406 6.762 3.551 9.879 6.434l275.684 281.379c7 7.25 10.5 16.125 10.5 26.625 0 7-1.562 13.375-4.687 19.125s-7.563 10.312-13.313 13.687c-5.75 3.375-12.125 5.063-19.125 5.063-8.542 0-16.215-2.691-23.021-8.073l-3.979-3.552-247.125-253.125-247.125 253.125c-7.75 7.75-16.75 11.625-27 11.625-6.75 0-13.062-1.688-18.937-5.063s-10.375-7.937-13.5-13.687c-3.125-5.75-4.688-12.125-4.688-19.125z" />
<glyph unicode="&#xe920;" glyph-name="arrow-outline-left" d="M512 64c-210.071 0-384 174.306-384 384 0 210.071 174.306 384 384.376 384 209.694 0 383.624-173.929 383.624-384 0-209.694-174.306-384-384-384zM512 128c177.694 0 319.624 142.306 319.624 320s-141.553 320-319.247 320c-177.694 0-320-142.306-320.377-320-0.376-177.694 142.307-320 320.001-320zM476.235 290.635c-7.906 0-14.682 3.012-19.576 7.906l-127.247 127.624c-7.153 7.153-10.541 13.553-10.541 22.212 0 7.906 3.012 14.306 10.541 21.835l127.247 127.624c4.894 4.894 11.671 7.529 19.576 7.529 15.435 0 27.106-11.671 27.106-27.106 0-8.282-3.388-15.059-8.282-19.953l-47.059-46.682-45.553-38.024 79.435 3.012h196.518c16.188 0 28.235-12.047 28.235-28.235s-12.047-28.235-28.235-28.235h-196.518l-79.435 3.012 45.553-38.4 47.059-46.306c5.271-5.271 8.282-12.047 8.282-20.329 0-15.059-11.671-27.482-27.106-27.482z" />
<glyph unicode="&#xe921;" glyph-name="arrow-outline-right" d="M512 64c210.071 0 384 174.306 384 384 0 210.071-174.306 384-384.376 384-209.694 0-383.624-173.929-383.624-384 0-209.694 174.306-384 384-384zM512 128c-177.694 0-319.624 142.306-319.624 320s141.553 320 319.247 320c177.694 0 320-142.306 320.377-320s-142.307-320-320.001-320zM547.765 290.635c7.906 0 14.682 3.012 19.576 7.906l127.247 127.624c7.153 7.153 10.541 13.553 10.541 22.212 0 7.906-3.012 14.306-10.541 21.835l-127.247 127.624c-4.894 4.894-11.671 7.529-19.576 7.529-15.435 0-27.106-11.671-27.106-27.106 0-8.282 3.388-15.059 8.282-19.953l47.059-46.682 45.553-38.024-79.435 3.012h-196.518c-16.188 0-28.235-12.047-28.235-28.235s12.047-28.235 28.235-28.235h196.518l79.435 3.012-45.553-38.4-47.059-46.306c-5.271-5.271-8.282-12.047-8.282-20.329 0-15.059 11.671-27.482 27.106-27.482z" />
<glyph unicode="&#xe922;" glyph-name="arrow-outline-up" horiz-adv-x="1067" d="M511.624 64c210.071 0 384.376 173.929 384.376 384 0 209.694-173.929 384-384 384-209.694 0-384-174.306-384-384 0-210.071 173.929-384 383.624-384zM511.624 128c-177.694 0-319.247 142.306-319.247 320s141.929 320 319.624 320c177.694 0 320.376-142.306 320.002-320-0.379-177.694-142.685-320-320.379-320zM511.899 268.427c10.997 0 20.216 7.788 22.129 17.981l0.364 3.924v244.678l109.767-106.896c8.772-8.543 22.943-8.543 31.715 0 7.798 7.594 8.664 19.341 2.599 27.858l-2.599 3.028-148.23 144.353c-7.798 7.594-19.861 8.437-28.606 2.531l-3.109-2.531-148.23-144.353c-8.772-8.543-8.772-22.343 0-30.886 7.798-7.594 20.038-8.437 28.823-2.531l3.117 2.531 109.766 106.896v-244.678c0-12.048 10.122-21.905 22.493-21.905z" />
<glyph unicode="&#xe923;" glyph-name="arrow-outline-down" horiz-adv-x="1067" d="M511.624 832c210.071 0 384.376-173.929 384.376-384 0-209.694-173.929-384-384-384-209.694 0-384 174.306-384 384 0 210.071 173.929 384 383.624 384zM511.624 768c-177.694 0-319.247-142.306-319.247-320s141.929-320 319.624-320c177.694 0 320.376 142.306 320.002 320-0.379 177.694-142.685 320-320.379 320zM511.899 627.573c10.997 0 20.216-7.788 22.129-17.981l0.364-3.924v-244.678l109.767 106.896c8.772 8.543 22.943 8.543 31.715 0 7.798-7.594 8.664-19.341 2.599-27.858l-2.599-3.028-148.23-144.353c-7.798-7.594-19.861-8.437-28.606-2.531l-3.109 2.531-148.23 144.353c-8.772 8.543-8.772 22.343 0 30.886 7.798 7.594 20.038 8.437 28.823 2.531l3.117-2.531 109.766-106.896v244.678c0 12.048 10.122 21.905 22.493 21.905z" />
<glyph unicode="&#xe924;" glyph-name="checkbox-checked" d="M673.684 832c119.633 0 217.196-94.495 222.121-212.918l0.195-9.398v-323.368c0-119.633-94.495-217.196-212.918-222.121l-9.398-0.195h-323.368c-119.633 0-217.196 94.495-222.121 212.918l-0.195 9.398v323.368c0 119.633 94.495 217.196 212.918 222.121l9.398 0.195h323.368zM672.627 789.333h-321.255c-96.866 0-175.93-76.216-180.497-171.951l-0.208-8.755v-321.255c0-96.866 76.216-175.93 171.951-180.497l8.755-0.208h321.255c96.866 0 175.93 76.216 180.497 171.951l0.208 8.755v321.255c0 96.866-76.216 175.93-171.951 180.497l-8.755 0.208zM682.275 623.041c12.878 0 21.538-8.66 21.538-21.316 0-3.83-0.999-7.66-3.185-12.053l-2.588-4.6-198.059-310.633c-5.551-8.215-13.1-12.434-22.87-12.434-7.956 0-14.063 2.775-19.732 8.583l-3.36 3.851-109.021 137.887c-4.441 5.551-6.661 11.324-6.661 16.653 0 12.656 9.104 21.538 22.204 21.538 6.846 0 11.842-2.159 16.53-7.247l2.788-3.411 96.365-125.452 186.513 296.645c5.551 8.66 10.658 11.99 19.539 11.99z" />
<glyph unicode="&#xe925;" glyph-name="checkbox" d="M673.684 832h-323.368c-122.782 0-222.316-99.534-222.316-222.316v-323.368c0-122.782 99.534-222.316 222.316-222.316h323.368c122.782 0 222.316 99.534 222.316 222.316v323.368c0 122.782-99.534 222.316-222.316 222.316zM351.373 789.333h321.255c99.801 0 180.706-80.905 180.706-180.706v-321.255c0-99.801-80.905-180.706-180.706-180.706h-321.255c-99.801 0-180.706 80.905-180.706 180.706v321.255c0 99.801 80.905 180.706 180.706 180.706z" />
<glyph unicode="&#xe926;" glyph-name="minus-filled" d="M512 832c212.077 0 384-171.923 384-384s-171.923-384-384-384c-212.077 0-384 171.923-384 384s171.923 384 384 384zM736 480h-448c-17.673 0-32-14.327-32-32 0-16.2 12.039-29.589 27.658-31.708l4.342-0.292h448c17.673 0 32 14.327 32 32 0 16.2-12.039 29.589-27.658 31.708l-4.342 0.292z" />
<glyph unicode="&#xe927;" glyph-name="minus-outline" d="M511.617 832c52.578 0 102.094-10.018 148.546-30.054s87.29-47.729 122.512-83.079c35.222-35.35 62.915-76.187 83.079-122.512s30.245-95.777 30.245-148.355c0-52.578-10.082-102.030-30.245-148.355s-47.856-87.163-83.079-122.512c-35.222-35.35-75.996-63.043-122.321-83.079s-95.777-30.054-148.355-30.054c-52.578 0-102.030 10.018-148.355 30.054s-87.163 47.729-122.512 83.079c-35.35 35.35-63.043 76.187-83.079 122.512s-30.054 95.777-30.054 148.355c0 52.578 10.018 102.030 30.054 148.355s47.665 87.163 82.887 122.512c35.222 35.35 75.996 63.043 122.321 83.079s95.777 30.054 148.355 30.054zM511.617 782.612c-46.197 0-89.523-8.614-129.978-25.842s-75.932-41.22-106.433-71.976c-30.5-30.756-54.365-66.361-71.593-106.816s-25.842-83.781-25.842-129.978c0-46.197 8.614-89.523 25.842-129.978s41.157-75.996 71.785-106.624c30.628-30.628 66.106-54.62 106.433-71.976s83.717-26.034 130.169-26.034c46.197 0 89.587 8.678 130.169 26.034s76.187 41.348 106.816 71.976c30.628 30.628 54.556 66.169 71.785 106.624s25.842 83.781 25.842 129.978c0 46.197-8.678 89.523-26.034 129.978s-41.412 76.060-72.167 106.816c-30.756 30.756-66.297 54.748-106.624 71.976s-83.717 25.842-130.169 25.842zM736 480c17.673 0 32-14.327 32-32s-14.327-32-32-32h-448c-17.673 0-32 14.327-32 32s14.327 32 32 32h448z" />
<glyph unicode="&#xe928;" glyph-name="plus-filled" d="M511.795 832c52.758 0 102.304-9.972 148.639-29.917s87.201-47.607 122.601-82.988c35.4-35.381 63.077-76.226 83.033-122.536s29.933-95.693 29.933-148.149c0-52.73-9.978-102.25-29.933-148.559s-47.633-87.155-83.033-122.536c-35.4-35.381-76.267-63.112-122.601-83.193s-95.744-30.122-148.229-30.122c-52.758 0-102.304 10.041-148.639 30.122s-87.133 47.812-122.396 83.193c-35.263 35.381-62.941 76.226-83.033 122.536s-30.138 95.829-30.138 148.559c0 52.457 9.978 101.84 29.933 148.149s47.633 87.155 83.033 122.536c35.4 35.381 76.267 63.044 122.601 82.988s95.744 29.917 148.229 29.917zM510.975 624.222c-6.014 0-10.798-2.117-14.351-6.352s-5.33-9.631-5.33-16.188v-134.42h-134.082c-6.834 0-12.301-1.844-16.401-5.533s-6.151-8.674-6.151-14.958c0-6.011 2.187-10.86 6.561-14.549s9.704-5.533 15.991-5.533h134.082v-131.142c0-6.557 1.777-11.885 5.33-15.983s8.337-6.147 14.351-6.147c6.561 0 11.686 2.049 15.376 6.147s5.536 9.426 5.536 15.983v131.142h134.082c6.287 0 11.549 1.844 15.786 5.533s6.356 8.538 6.356 14.549c0 6.284-1.982 11.27-5.946 14.958s-9.363 5.533-16.196 5.533h-134.082v134.42c0 6.83-1.845 12.295-5.536 16.393s-8.816 6.147-15.376 6.147z" />
<glyph unicode="&#xe929;" glyph-name="plus-outline" d="M512 64c52.578 0 102.030 10.018 148.355 30.054s87.099 47.729 122.321 83.079c35.222 35.35 62.915 76.187 83.079 122.512s30.245 95.777 30.245 148.355c0 52.578-10.082 102.030-30.245 148.355s-47.856 87.163-83.079 122.512c-35.222 35.35-76.060 63.043-122.512 83.079s-95.968 30.054-148.546 30.054c-52.578 0-102.030-10.018-148.355-30.054s-87.099-47.729-122.321-83.079c-35.222-35.35-62.851-76.187-82.887-122.512s-30.054-95.777-30.054-148.355c0-52.578 10.018-102.030 30.054-148.355s47.729-87.163 83.079-122.512c35.35-35.35 76.187-63.043 122.512-83.079s95.777-30.054 148.355-30.054zM512 113.388c-46.453 0-89.842 8.678-130.169 26.034s-75.805 41.348-106.433 71.976c-30.628 30.628-54.556 66.169-71.785 106.624s-25.842 83.781-25.842 129.978c0 46.197 8.614 89.523 25.842 129.978s41.093 76.060 71.593 106.816c30.5 30.756 65.978 54.748 106.433 71.976s83.781 25.842 129.978 25.842c46.453 0 89.842-8.614 130.169-25.842s75.868-41.22 106.624-71.976c30.756-30.756 54.812-66.361 72.167-106.816s26.034-83.781 26.034-129.978c0-46.197-8.614-89.523-25.842-129.978s-41.157-75.996-71.785-106.624c-30.628-30.628-66.233-54.62-106.816-71.976s-83.972-26.034-130.169-26.034zM510.851 275.334c7.657 0 13.719 2.489 18.185 7.466s6.7 11.422 6.7 19.334v120.215h124.81c7.912 0 14.421 2.169 19.525 6.508s7.657 10.209 7.657 17.611c0 7.912-2.489 14.102-7.466 18.568s-11.549 6.7-19.717 6.7h-124.81v124.427c0 8.423-2.233 15.059-6.7 19.908s-10.528 7.274-18.185 7.274c-7.657 0-13.591-2.489-17.803-7.466s-6.317-11.549-6.317-19.717v-124.427h-124.044c-8.423 0-15.123-2.233-20.1-6.7s-7.466-10.656-7.466-18.568c0-7.402 2.616-13.272 7.848-17.611s11.805-6.508 19.717-6.508h124.044v-120.215c0-7.912 2.106-14.357 6.317-19.334s10.146-7.466 17.803-7.466z" />
<glyph unicode="&#xe92a;" glyph-name="check-outline" d="M512 853.333c223.859 0 405.333-181.474 405.333-405.333s-181.474-405.333-405.333-405.333c-223.859 0-405.333 181.474-405.333 405.333s181.474 405.333 405.333 405.333zM512 810.667c-200.295 0-362.667-162.371-362.667-362.667s162.371-362.667 362.667-362.667c200.295 0 362.667 162.371 362.667 362.667s-162.371 362.667-362.667 362.667zM685.272 618.667c12.878 0 21.538-8.66 21.538-21.316 0-3.83-0.999-7.66-3.185-12.053l-2.588-4.6-198.059-310.633c-5.551-8.215-13.1-12.434-22.87-12.434-7.956 0-14.063 2.775-19.732 8.583l-3.36 3.851-109.021 137.887c-4.441 5.551-6.661 11.324-6.661 16.653 0 12.656 9.104 21.538 22.204 21.538 6.846 0 11.842-2.159 16.53-7.247l2.788-3.411 96.365-125.452 186.513 296.645c5.551 8.66 10.658 11.99 19.539 11.99z" />
<glyph unicode="&#xe92b;" glyph-name="check-filled" d="M512 832c212.077 0 384-171.923 384-384s-171.923-384-384-384c-212.077 0-384 171.923-384 384s171.923 384 384 384zM685.272 618.667c-7.613 0-12.452-2.447-17.175-8.599l-2.364-3.391-186.513-296.645-96.365 125.452-2.788 3.411c-4.687 5.088-9.683 7.247-16.53 7.247-13.1 0-22.204-8.882-22.204-21.538 0-3.997 1.249-8.243 3.747-12.458l2.914-4.194 109.021-137.887 3.36-3.851c5.669-5.808 11.775-8.583 19.732-8.583 8.141 0 14.741 2.93 19.927 8.661l2.943 3.774 198.059 310.633 2.588 4.6c2.186 4.392 3.185 8.222 3.185 12.053 0 12.656-8.66 21.316-21.538 21.316z" />
<glyph unicode="&#xe92c;" glyph-name="agriculture" d="M872.092 366.933c10.262 4.267 22.234-3.413 23.090-14.507 1.71-23.040 0.855-60.587-18.814-92.16-17.881-27.927-45.656-44.571-66.621-53.777l-6.068-2.543v-90.453h76.966c11.972 0 21.379-10.24 21.379-22.187 0-10.619-7.433-19.216-17.493-20.995l-3.886-0.338h-769.655c-11.972 0-21.379 9.387-21.379 21.333 0 10.619 7.433 19.216 17.493 20.995l3.886 0.338h77.821v91.307c-22.234 8.533-53.876 26.453-72.69 56.32-19.669 31.573-20.524 69.12-17.959 92.16 0.855 11.093 11.972 18.773 23.090 14.507 22.234-8.533 55.586-25.6 75.255-57.173 5.986-10.24 11.117-21.333 13.683-32.427 2.566 11.093 6.841 22.187 13.683 32.427 19.669 31.573 53.876 48.64 75.255 57.173 10.262 4.267 22.234-3.413 23.090-14.507 1.71-23.040 0.855-60.587-18.814-92.16-17.881-27.927-45.656-44.571-66.621-53.777l-6.068-2.543v-91.307h245.434v91.307c-22.234 8.533-53.876 26.453-72.69 56.32-19.669 31.573-20.524 69.12-18.814 92.16 0.855 11.093 11.972 18.773 23.090 14.507 22.234-8.533 55.586-25.6 75.255-57.173 5.986-10.24 11.117-21.333 13.683-32.427 2.566 11.093 6.841 22.187 13.683 32.427 19.669 31.573 53.876 48.64 75.255 57.173 10.262 4.267 22.234-3.413 23.090-14.507 1.71-23.040 0.855-60.587-18.814-92.16-17.881-27.927-45.656-44.571-66.621-53.777l-6.068-2.543v-91.307h245.434v91.307c-22.234 8.533-53.876 26.453-72.69 56.32-19.669 31.573-20.524 69.12-18.814 92.16 0.855 11.093 11.972 18.773 23.090 14.507 22.234-8.533 55.586-25.6 75.255-57.173 5.986-10.24 11.117-21.333 13.683-32.427 2.566 11.093 6.841 22.187 13.683 32.427 19.669 31.573 53.876 48.64 75.255 57.173zM495.816 501.76c10.642 0 19.257-7.417 21.040-17.455l0.339-3.878v-55.467c0-11.947-9.407-21.333-21.379-21.333-10.642 0-19.257 7.417-21.040 17.455l-0.339 3.878v55.467c0 11.947 9.407 21.333 21.379 21.333zM385.499 535.040c8.552 8.533 22.234 8.533 30.786 0 7.602-6.827 8.446-18.373 2.534-26.848l-2.534-3.019-39.338-39.253c-4.276-4.267-9.407-5.973-15.393-5.973s-11.117 1.707-15.393 5.973c-7.602 6.827-8.446 18.373-2.534 26.848l2.534 3.019 39.338 39.253zM575.347 535.040c7.602 7.585 19.257 8.428 27.76 2.528l3.027-2.528 39.338-39.253c8.552-7.68 8.552-21.333 0-29.867-4.276-4.267-9.407-5.973-15.393-5.973-4.789 0-9.031 1.092-12.725 3.714l-2.668 2.26-39.338 39.253c-8.552 7.68-8.552 21.333 0 29.867zM495.816 698.027c46.179 0 83.807-37.547 83.807-83.627s-37.628-83.627-83.807-83.627c-46.179 0-83.807 37.547-83.807 83.627s37.628 83.627 83.807 83.627zM361.554 635.733c11.972 0 21.379-9.387 21.379-21.333 0-10.619-7.433-19.216-17.493-20.995l-3.886-0.338h-55.586c-11.972 0-21.379 9.387-21.379 21.333 0 10.619 7.433 19.216 17.493 20.995l3.886 0.338h55.586zM685.664 635.733c11.972 0 21.379-9.387 21.379-21.333 0-10.619-7.433-19.216-17.493-20.995l-3.886-0.338h-55.586c-11.972 0-21.379 9.387-21.379 21.333 0 10.619 7.433 19.216 17.493 20.995l3.886 0.338h55.586zM615.54 762.88c7.697 8.533 21.379 8.533 29.931 0 7.602-6.827 8.446-18.373 2.534-26.848l-2.534-3.019-39.338-39.253c-4.276-4.267-10.262-5.973-15.393-5.973s-11.117 2.56-14.538 5.973c-7.602 6.827-8.446 18.373-2.534 26.848l2.534 3.019 39.338 39.253zM347.016 763.733c6.841 7.585 18.413 8.428 26.906 2.528l3.025-2.528 39.338-39.253c8.552-7.68 8.552-21.333 0-29.867-4.276-4.267-9.407-5.973-15.393-5.973-4.789 0-9.031 1.092-12.725 3.714l-2.668 2.26-38.483 39.253c-8.552 7.68-8.552 21.333 0 29.867zM495.816 825.173c10.642 0 19.257-7.417 21.040-17.455l0.339-3.878v-55.467c0-11.947-9.407-21.333-21.379-21.333-10.642 0-19.257 7.417-21.040 17.455l-0.339 3.878v55.467c0 11.947 9.407 21.333 21.379 21.333z" />
<glyph unicode="&#xe92d;" glyph-name="accomodation-food" horiz-adv-x="1067" d="M597.333 874.667v-28.444h-28.444v-42.667c194.969-7.504 349.872-164.987 355.403-358.771l0.153-11.007h42.667c7.855 0 14.222-6.368 14.222-14.222 0.049-53.359-41.979-97.269-95.289-99.556l1.601-1.886c0.232-0.311 0.39-0.627 0.39-0.959 13.894-23.193 8.999-52.715-10.874-70.247l-4.486-3.567-171.947-142.222c-15.607-12.932-34.731-20.748-54.787-22.514l-8.645-0.384h-338.631v-42.667c0-6.873-4.875-12.607-11.356-13.933l-2.866-0.289h-156.444v28.444h142.222v213.333h-142.222v28.444h156.444c1.899-0.125 3.743-0.63 5.428-1.473l2.394-1.514 37.831 31.431h-102.542c-54.983 0-99.556 44.573-99.556 99.556 0 6.873 4.875 12.607 11.356 13.933l2.866 0.289h42.667c-0.144 195.114 151.145 356.070 344.563 369.194l10.992 0.584v42.667h-28.444v28.444h85.333zM199.111 163.556c23.564 0 42.667-19.103 42.667-42.667s-19.103-42.667-42.667-42.667c-23.564 0-42.667 19.103-42.667 42.667s19.103 42.667 42.667 42.667zM199.111 135.111c-7.855 0-14.222-6.368-14.222-14.222s6.368-14.222 14.222-14.222c7.855 0 14.222 6.368 14.222 14.222s-6.368 14.222-14.222 14.222zM574.862 320h-184.889c-7.989-0.016-15.772-2.274-22.485-6.46l-4.821-3.496-64-53.618v-149.76h338.631c14.2 0 28.017 4.251 39.709 12.121l5.66 4.234 172.658 143.076c12.051 8.084 15.781 24.121 8.533 36.693-3.934 6.43-10.351 10.947-17.731 12.482-5.904 1.228-12.004 0.46-17.368-2.112l-3.87-2.264-162.418-116.196c-1.601-1.159-3.416-1.965-5.326-2.379l-2.922-0.323h-170.667c-23.564 0-42.667 19.103-42.667 42.667 0 21.881 16.471 39.915 37.691 42.38l4.976 0.287h91.307c11.782 0 21.333 9.551 21.333 21.333 0 10.473-7.547 19.183-17.499 20.99l-3.835 0.344zM788.622 320h-168.249c3.394-6.61 5.242-13.905 5.404-21.333 0-25.659-19.414-46.783-44.354-49.486l-5.424-0.292h-92.444c-7.855 0-14.222-6.368-14.222-14.222 0-6.873 4.875-12.607 11.356-13.933l2.866-0.289h165.689l139.378 99.556zM951.467 405.333h-793.6c6.337-31.044 32.338-53.887 63.411-56.615l6.278-0.274h654.222c31.685-0.006 59.27 20.895 68.164 50.793l1.525 6.096zM554.667 775.111c-184.956 0-335.554-147.108-341.171-330.702l-0.162-10.632h682.667c0 188.513-152.82 341.333-341.333 341.333zM320.711 641.564l21.333-18.916c-6.064-6.78-11.783-13.858-17.136-21.206l-7.752-11.221-23.751 15.502c5.492 8.387 11.378 16.506 17.639 24.33l9.668 11.51zM554.667 746.667v-28.444c-68.058 0.060-133.716-24.364-185.096-68.566l-9.464-8.518-18.773 20.196c54.435 51.56 125.525 81.65 200.133 85.018l13.2 0.316z" />
<glyph unicode="&#xe92e;" glyph-name="document" d="M913.8 670.177c37.265 0 67.533-31.489 67.533-70.443v-465.259c0-38.953-30.268-70.475-67.533-70.475h-648.975c-37.265 0-67.533 31.522-67.533 70.475v465.259c0 38.954 30.268 70.443 67.533 70.443h648.975zM913.8 612.378h-648.975c-6.84 0-12.31-5.69-12.31-12.644v-465.259c0-6.967 5.482-12.676 12.31-12.676h648.975c6.828 0 12.31 5.709 12.31 12.676v465.259c0 6.954-5.47 12.644-12.31 12.644zM759.171 832c37.271 0 67.52-31.479 67.52-70.438v-43.34h-55.223v43.34c0 6.963-5.454 12.639-12.296 12.639h-648.985c-6.842 0-12.296-5.676-12.296-12.639v-465.246c0-6.979 5.469-12.677 12.296-12.677h37.478v-57.799h-37.478c-37.271 0-67.52 31.518-67.52 70.477v465.246c0 38.96 30.249 70.438 67.52 70.438h648.985z" />
<glyph unicode="&#xe92f;" glyph-name="classification" horiz-adv-x="1067" d="M129.178 140.831c0.366-1.283 0.813-2.482 1.382-3.6 0.61-1.158 1.3-2.193 2.113-3.186 0.813-1.034 1.666-2.027 2.682-2.896 0.975-0.827 1.991-1.489 3.129-2.151 1.219-0.703 2.398-1.241 3.738-1.696 0.61-0.207 1.057-0.621 1.707-0.786 1.463-0.29 2.966-0.455 4.389-0.455h731.444c9.509 0 17.798 6.744 19.83 16.219l81.272 372.364c1.3 6.123-0.122 12.536-4.023 17.418-3.82 4.882-9.671 7.737-15.807 7.737h-101.589v103.434c0 11.419-9.102 20.687-20.318 20.687h-434.437l-35.028 71.328c-3.454 6.992-10.484 11.419-18.164 11.419h-203.179c-11.215 0-20.318-9.268-20.318-20.687v-579.232c0-0.662 0.325-1.2 0.366-1.82 0.122-1.448 0.406-2.731 0.813-4.096zM863.467 167.434h-689.833l72.25 330.99h689.833l-72.25-330.99zM338.94 705.293l34.987-71.328c3.495-6.992 10.525-11.419 18.205-11.419h426.676v-82.747h-589.219c-9.509 0-17.798-6.744-19.83-16.219l-41.123-188.333v370.047h170.305z" />
<glyph unicode="&#xe930;" glyph-name="gas-energy" d="M339.887 389.424v-325.424h-78.102v325.424h78.102zM782.463 389.424v-325.424h-78.102v325.424h78.102zM691.345 363.39v-260.339h-325.424v260.339h325.424zM235.751 363.39v-260.339h-65.085v260.339h65.085zM873.582 363.39v-260.339h-65.085v260.339h65.085zM561.175 480.537v-104.13h-78.102v104.136c12.839-2.746 25.929-4.105 39.051-4.054 9.841-0.040 19.665 0.714 29.378 2.251l9.673 1.798zM528.633 832c89.821-0.101 162.611-72.891 162.712-162.712 0-89.863-72.849-162.712-162.712-162.712s-162.712 72.849-162.712 162.712c0 89.863 72.849 162.712 162.712 162.712zM528.633 784.784c-63.787 0-115.496-51.709-115.496-115.496s51.709-115.496 115.496-115.496c63.757 0.072 115.424 51.739 115.496 115.496 0 63.787-51.709 115.496-115.496 115.496zM626.26 648.368c-7.007-39.986-48.577-69.679-97.627-69.734-46.468 0.052-86.224 26.704-96.237 63.508l-1.39 6.225h195.254zM528.633 759.942c47.928-0.057 88.437-32.824 96.642-76.975l0.985-6.705h-87.412v40.386c0 6.245-5.336 11.308-11.918 11.308-5.642 0-10.368-3.72-11.603-8.715l-0.315-2.593v-40.386h-84.006c5.158 47.497 47.302 83.621 97.627 83.68z" />
<glyph unicode="&#xe931;" glyph-name="construction" horiz-adv-x="1067" d="M253.637 89.83v-25.83h-95.311v25.83h95.311zM430.395 812.197l84.047-100.735h-1.733v-49.076h25.994v-68.879h-51.988v-61.991c0-5.904-4.456-11.175-10.094-12.561l-2.903-0.354h-9.531v-20.664c0-4.305 3.009-8.012 7.020-9.128l2.511-0.343h11.264c4.332 0 8.063 2.99 9.186 6.976l0.345 2.495v11.193h25.994v-11.193c0-9.594-4.456-18.555-11.186-25.257l-3.544-3.155 162.895-118.816 1.091-1.467 0.642-0.255h111.774v-25.83h-114.373v-25.83h114.373v-25.83h-114.373v-25.83h114.373v-25.83h-114.373v-25.83h114.373v-25.83h-114.373v-25.83h114.373v-25.83h-114.373v-25.83h114.373v-25.83h-147.299v25.83h6.932v25.83h-6.932v25.83h6.932v25.83h-6.932v25.83h6.932v25.83h-6.932v25.83h6.932v25.83h-6.932v25.83h6.932v25.83h-6.932v19.803l-159.429 116.233-149.031-111.067h282.467v-25.83h-296.33v-25.83h296.33v-25.83h-296.33v-25.83h296.33v-25.83h-296.33v-25.83h296.33v-25.83h-296.33v-25.83h296.33v-25.83h-296.33v-25.83h296.33v-25.83h-329.256v25.83h6.932v25.83h-6.932v25.83h6.932v25.83h-6.932v25.83h6.932v25.83h-6.932v25.83h6.932v25.83h-6.932v25.83h6.932v25.83h-6.932v25.83h3.466l0.866 0.255 1.733 1.467 163.761 121.399c-6.498 5.022-10.59 12.436-11.773 20.747l-0.357 5.082v22.386c0 11.48 7.531 20.919 18.332 23.479l4.196 0.628v49.937h-51.988v68.879h25.994v49.076h-90.112l86.646 100.735zM253.637 141.489v-25.83h-95.311v25.83h95.311zM253.637 193.148v-25.83h-95.311v25.83h95.311zM253.637 244.807v-25.83h-95.311v25.83h95.311zM253.637 296.466v-25.83h-95.311v25.83h95.311zM253.637 348.126v-25.83h-95.311v25.83h95.311zM614.085 814.78l85.78-103.318h-175.025l89.246 103.318zM970.201 796.7v-85.238h-73.649l73.649 85.238zM251.038 810.475l81.447-99.013h-204.485l123.038 99.013zM799.508 814.78l85.78-103.318h-174.159l88.379 103.318zM780.446 832l-74.516-86.96-71.916 86.96h146.432zM595.023 832l-75.382-86.96-71.916 86.96h147.299zM413.932 832l-75.382-86.96-67.584 81.794 6.065 5.166h136.901zM965.869 832l-74.516-86.96-71.916 86.96h146.432z" />
<glyph unicode="&#xe932;" glyph-name="help" d="M512 832c101.843 0 199.515-40.457 271.529-112.471s112.471-169.686 112.471-271.529c0-212.077-171.923-384-384-384s-384 171.923-384 384c0 212.077 171.923 384 384 384zM512 778.24c-182.387 0-330.24-147.853-330.24-330.24s147.853-330.24 330.24-330.24c182.387 0 330.24 147.853 330.24 330.24 0 178.879-142.221 324.541-319.757 330.077l-10.483 0.163zM501.171 334.49c19.425 0.573 39.586-10.494 40.065-33.951l-0.206-5.217c0.154-24.653-13.67-39.322-37.862-39.322s-40.32 14.131-40.397 34.79c0 28.646 12.826 42.931 38.4 43.699zM518.067 640c13.662-1.427 27.228-3.658 40.627-6.682 40.934-11.597 65.28-44.314 68.352-87.782 3.015-28.347-9.307-56.153-32.333-72.96l-16.637-12.269-16.694-12.154c-16.196-10.611-25.504-29.052-24.422-48.384 0.561-14.106-8.563-26.778-22.118-30.72-14.424-5.551-30.778-0.658-39.782 11.904-2.869 4.814-4.431 10.294-4.531 15.898-1.023 32.539 12.861 63.604 37.417 84.533l6.359 5.016c12.327 9.382 23.955 19.649 34.79 30.72 5.165 6.085 8.306 13.628 8.986 21.581 1.766 21.734-12.211 35.712-34.714 37.171-27.187 1.766-50.074-5.299-66.048-29.338-6.826-11.605-20.155-17.733-33.408-15.36-23.040 3.84-32.947 22.579-23.501 44.16 9.889 21.033 26.889 37.896 48 47.616 21.708 10.668 45.477 16.486 69.658 17.050z" />
<glyph unicode="&#xe933;" glyph-name="home" d="M765.49 64c27.488 0 48.822 7.529 64 22.588s22.768 35.854 22.768 62.387l-0.032 335.392 43.416-36.366c4.303-3.585 8.964-6.693 13.983-9.322s10.278-3.944 15.776-3.944c10.517 0 19.361 3.048 26.532 9.143s10.756 14.401 10.756 24.919c0 11.951-4.781 21.871-14.342 29.759l-96.122 80.837 0.032 152.934c0 8.127-2.331 14.581-6.992 19.361s-11.055 7.171-19.182 7.171h-49.838c-7.888 0-14.282-2.39-19.182-7.171s-7.35-11.234-7.35-19.361l-0.023-66.654-174.229 146.609c-15.776 13.147-32.866 19.72-51.272 19.72s-35.376-6.573-50.913-19.72l-373.602-313.725c-9.561-7.888-14.342-17.449-14.342-28.683 0-9.561 3.346-17.808 10.039-24.739s15.776-10.398 27.249-10.398c5.737 0 11.115 1.315 16.134 3.944s9.8 5.737 14.342 9.322l40.129 33.663 0.027-332.688c0-26.532 7.709-47.328 23.126-62.387s36.751-22.588 64-22.588h485.109zM746.129 136.067l-118.698-0.025 0.020 234.87c0 8.127-2.57 14.76-7.709 19.899s-11.772 7.709-19.899 7.709h-150.588c-8.605 0-15.417-2.57-20.437-7.709s-7.529-11.772-7.529-19.899l-0.028-234.87-121.518 0.025c-10.995 0-19.481 2.988-25.457 8.964s-8.964 14.7-8.964 26.174v370.904l243.451 204.199c5.020 4.303 10.218 6.454 15.597 6.454s10.577-2.151 15.597-6.454l240.565-201.796 0.017-373.308c0-11.473-2.928-20.198-8.784-26.174s-14.401-8.964-25.636-8.964z" />
<glyph unicode="&#xe934;" glyph-name="license" d="M850.633 64c43.039 0 75.582 11.3 97.629 33.9s33.071 55.953 33.071 100.058v500.083c0 44.105-11.024 77.457-33.071 100.058s-54.591 33.9-97.629 33.9h-677.266c-43.039 0-75.582-11.3-97.629-33.9s-33.071-55.953-33.071-100.058v-500.083c0-44.105 11.024-77.457 33.071-100.058s54.591-33.9 97.629-33.9h677.266zM845.484 146.183h-667.364c-18.219 0-32.147 4.862-41.785 14.587s-14.456 24.586-14.456 44.584v485.291c0 19.998 4.819 34.859 14.456 44.584s23.566 14.587 41.785 14.587h667.364c18.219 0 32.147-4.862 41.785-14.587s14.456-24.586 14.456-44.584v-485.291c0-19.998-4.819-34.859-14.456-44.584s-23.566-14.587-41.785-14.587zM712.407 447.795c17.427 0 33.269 4.452 47.527 13.355s25.678 20.751 34.259 35.544c8.581 14.793 12.872 31.367 12.872 49.721 0 18.080-4.291 34.585-12.872 49.515s-20.001 26.846-34.259 35.75c-14.258 8.903-30.101 13.355-47.527 13.355s-33.335-4.452-47.725-13.355c-14.39-8.903-25.876-20.82-34.457-35.75s-12.872-31.435-12.872-49.515c0-18.354 4.291-34.928 12.872-49.721s20.067-26.641 34.457-35.544c14.39-8.903 30.299-13.355 47.725-13.355zM480.711 564.905c8.185 0 14.984 3.013 20.397 9.040s8.119 13.149 8.119 21.368c0 8.492-2.706 15.615-8.119 21.368s-12.212 8.629-20.397 8.629h-235.657c-8.185 0-14.918-2.876-20.199-8.629s-7.921-12.875-7.921-21.368c0-8.218 2.706-15.341 8.119-21.368s12.080-9.040 20.001-9.040h235.657zM414.965 456.835c8.185 0 15.050 2.876 20.595 8.629s8.317 12.875 8.317 21.368c0 8.492-2.772 15.683-8.317 21.573s-12.41 8.835-20.595 8.835h-169.911c-8.185 0-14.918-2.945-20.199-8.835s-7.921-13.081-7.921-21.573c0-8.492 2.706-15.615 8.119-21.368s12.080-8.629 20.001-8.629h169.911z" />
<glyph unicode="&#xe935;" glyph-name="light-industry" d="M321.122 68.837c22.867 6.394 43.62 19.020 62.261 37.877 11.488 11.704 21.837 24.384 31.049 38.039s18.478 28.665 27.798 45.029c9.32 16.364 19.995 34.409 32.024 54.133s26.606 41.453 43.729 65.187l7.567 10.308 5.268 6.974 131.193-130.912 2.276-30.561c0.433-6.069 2.493-11.921 6.177-17.556s8.453-10.079 14.305-13.33l105.339-61.448c5.852-3.251 11.433-4.985 16.744-5.202s10.133 1.842 14.468 6.177l49.093 49.093c4.118 4.118 6.069 8.887 5.852 14.305s-2.167 11.054-5.852 16.906l-60.472 105.014c-7.369 12.355-17.882 19.182-31.537 20.483l-30.561 2.276-137.974 137.677 0.456 0.504c10.612 11.328 21.918 23.038 33.917 35.128l8.094 8.092 9.762-3.763c20.41-7.312 41.297-11.2 62.662-11.665 24.926-0.542 49.093 3.631 72.502 12.517s44.325 22.542 62.748 40.965c20.808 20.808 35.546 44.867 44.216 72.177s11.108 55.487 7.315 84.531c-3.793 29.044-14.143 56.463-31.049 82.255l-38.909-39.2-50.825-50.533c-8.453-8.453-16.798-8.562-25.034-0.325l-33.813 33.813c-8.67 9.103-8.995 17.773-0.975 26.010l48.39 48.151 0.053-0.033 41.615 41.615c-25.793 16.69-53.157 26.931-82.093 30.724s-57.004 1.355-84.206-7.315c-27.202-8.67-51.206-23.517-72.014-44.541-18.423-18.207-32.133-38.96-41.128-62.261s-13.276-47.413-12.842-72.339c0.186-10.683 1.237-21.246 3.155-31.689l0.394-1.941-166.759 167.58c-24.926 25.143-50.556 37.822-76.891 38.039s-51.748-11.921-76.241-36.413l-48.118-48.443c-24.276-24.492-36.359-49.798-36.252-75.916 0.109-26.118 12.735-51.748 37.877-76.891l175.063-175.072-4.882-3.114c-4.084-2.588-8.087-5.074-12.010-7.458-19.616-11.921-37.497-22.542-53.645-31.862s-31.049-18.478-44.704-27.473c-13.655-8.995-26.226-19.236-37.714-30.724-18.857-18.857-31.537-39.665-38.039-62.423s-6.557-45.679-0.163-68.763c6.394-23.084 19.345-44.379 38.852-63.886s40.748-32.404 63.724-38.689c22.975-6.286 45.896-6.231 68.763 0.163zM690.459 510.025c-23.3 6.611-44.054 18.911-62.261 36.901-18.207 18.207-30.561 38.906-37.064 62.098s-7.098 46.275-1.788 69.251c5.31 22.975 16.527 43.024 33.65 60.147 20.374 20.374 45.029 32.295 73.965 35.763 9.645 1.156 19.128 1.325 28.448 0.506l2.203-0.268-40.567-40.553c-12.138-12.138-17.99-25.414-17.557-39.827s6.936-27.906 19.507-40.477l46.492-45.842c12.355-12.355 25.739-18.64 40.152-18.857s27.364 5.527 38.852 17.231l40.889 40.705 0.402-3.316c1.517-19.074-0.759-37.497-6.828-55.27s-15.823-33.379-29.261-46.817c-17.123-17.123-37.118-28.285-59.985-33.487s-45.95-4.498-69.251 2.113zM415.57 555.704c-4.985-0.217-9.103 1.409-12.355 4.877l-120.62 121.27c-3.251 3.468-4.877 7.586-4.877 12.355s1.734 8.887 5.202 12.355c3.251 3.251 7.261 4.877 12.029 4.877s8.778-1.734 12.029-5.202l120.945-120.62c3.468-3.468 5.148-7.64 5.039-12.517s-1.897-9.049-5.364-12.517c-3.034-3.034-7.044-4.66-12.029-4.877zM370.378 510.675c-4.768-0.108-8.887 1.68-12.355 5.364l-120.945 120.295c-3.251 3.468-4.823 7.64-4.714 12.517s1.788 9.049 5.039 12.517c3.468 3.251 7.586 4.877 12.355 4.877s8.67-1.626 11.704-4.877l121.27-121.27c3.468-3.468 5.148-7.532 5.039-12.192s-1.788-8.724-5.039-12.192c-3.468-3.251-7.586-4.931-12.355-5.039zM286.985 123.457c-20.266-0.542-39.285 7.857-57.059 25.197-17.34 17.99-25.793 37.064-25.359 57.221s8.67 38.256 24.709 54.295c12.571 12.355 25.034 22.758 37.389 31.212s25.739 16.798 40.152 25.034c14.414 8.236 30.561 17.773 48.443 28.611s38.418 24.763 61.61 41.778c23.192 17.015 49.798 38.527 79.817 64.536 20.013 17.34 41.977 37.569 65.891 60.689l10.817 10.519 6.51-7.537c2.563-2.844 5.223-5.644 7.979-8.4l8.314-7.892 7.272-6.244-10.33-10.717c-23.047-24.035-43.277-46.095-60.689-66.18-26.118-30.128-47.63-56.733-64.536-79.817s-30.832-43.62-41.778-61.61c-10.946-17.99-20.483-34.138-28.611-48.443s-16.419-27.635-24.872-39.99c-8.453-12.355-18.857-24.709-31.212-37.064-16.039-16.256-34.192-24.655-54.458-25.197zM284.546 165.56c10.404 0 19.236 3.685 26.497 11.054s10.892 16.148 10.892 26.335c0 10.187-3.631 18.911-10.892 26.172s-16.093 10.892-26.497 10.892c-9.97 0-18.64-3.631-26.010-10.892s-11.054-15.985-11.054-26.172c0-10.187 3.685-18.965 11.054-26.335s16.039-11.054 26.010-11.054z" />
<glyph unicode="&#xe936;" glyph-name="medical" d="M512.163 442.375l220.366 231.027-98.713 103.689c-22.94 24.012-47.619 40.142-74.035 48.388s-52.659 8.671-78.727 1.273c-26.069-7.398-50.11-22.496-72.123-45.296-21.782-23.042-36.206-48.206-43.274-75.493s-6.662-54.816 1.217-82.588c7.879-27.772 23.172-53.664 45.881-77.676l99.408-103.325zM818.208 231.904c26.069 7.398 50.11 22.496 72.123 45.296 22.013 22.557 36.496 47.539 43.448 74.947s6.488 54.998-1.39 82.77c-7.879 27.772-23.172 53.664-45.881 77.676l-99.408 104.053-220.714-231.391 99.061-103.689c22.94-24.012 47.619-40.142 74.035-48.388s52.659-8.671 78.727-1.273zM465.239 304.85c-5.561 31.289-17.379 59.364-35.453 84.225s-40.435 44.508-67.083 58.939c-26.648 14.432-55.729 21.647-87.243 21.647-31.746 0-61-7.216-87.764-21.647s-49.183-34.078-67.257-58.939c-18.074-24.861-29.776-52.936-35.106-84.225h379.906zM275.46 64c31.514 0 60.595 7.276 87.243 21.829s48.951 34.321 66.909 59.303c17.958 24.982 29.834 53.118 35.627 84.407h-379.906c5.33-31.531 17.031-59.727 35.106-84.589s40.493-44.568 67.257-59.121c26.764-14.553 56.018-21.829 87.764-21.829z" />
<glyph unicode="&#xe937;" glyph-name="miscellaneous" d="M806.255 69.412c32.328 10.641 68.563 36.437 108.704 77.386 9.968 9.699 15.221 20.407 15.76 32.126s-3.637 21.889-12.527 30.51c-8.351 8.082-18.185 12.19-29.5 12.325s-21.283-3.839-29.904-11.921c-14.817-14.009-27.748-25.728-38.794-35.157s-19.801-16.299-26.267-20.609c-6.466-4.31-10.507-5.792-12.123-4.445s-0.539 5.792 3.233 13.335c3.772 7.543 9.766 17.983 17.983 31.318s17.848 29.163 28.893 47.482c19.936 32.867 34.82 61.289 44.654 85.266s14.144 44.788 12.931 62.434c-1.212 17.646-8.554 33.069-22.024 46.27-17.511 17.511-38.525 24.852-63.040 22.024s-53.746-15.693-87.691-38.592c-33.945-22.899-73.547-55.766-118.807-98.601-37.447-35.292-69.102-63.31-94.965-84.054s-46.674-34.416-62.434-41.017c-15.76-6.6-27.008-6.533-33.743 0.202-7.813 7.543-7.813 21.215 0 41.017s24.246 46.607 49.301 80.417c25.054 33.81 59.403 75.77 103.047 125.878 41.757 48.223 76.443 90.721 104.057 127.495s47.819 68.967 60.616 96.581c12.797 27.614 18.185 51.995 16.164 73.143s-11.786 40.478-29.298 57.989c-17.511 17.242-35.965 27.951-55.362 32.126s-42.229 0.471-68.496-11.113c-26.267-11.584-57.989-32.126-95.167-61.626s-82.033-69.169-134.567-119.009c-52.534-49.84-115.035-110.994-187.504-183.463l-71.526-71.526c-8.351-8.351-12.527-18.252-12.527-29.702s4.041-21.485 12.123-30.106c8.621-8.351 18.656-12.527 30.106-12.527s21.485 4.176 30.106 12.527l71.122 71.122c53.072 53.342 100.487 100.555 142.245 141.639s78.464 76.106 110.118 105.067c31.655 28.961 58.73 51.793 81.225 68.496s40.949 27.479 55.362 32.328c14.413 4.849 25.526 3.368 33.339-4.445 6.735-6.735 7.678-16.972 2.829-30.712s-14.548-30.712-29.096-50.917c-14.548-20.205-32.934-43.576-55.16-70.112s-47.078-55.968-74.557-88.297c-22.091-26.132-44.115-52.466-66.071-79.002s-41.757-52.803-59.403-78.8c-17.646-25.997-31.385-51.187-41.219-75.568s-13.74-47.55-11.719-69.506c2.021-21.956 12.056-41.959 30.106-60.009 16.164-15.895 33.81-25.189 52.938-27.883s39.333-0.135 60.616 7.678c21.283 7.813 43.037 19.128 65.263 33.945s44.519 31.924 66.879 51.321c22.36 19.397 44.047 39.198 65.061 59.403 22.899 21.822 42.902 40.747 60.009 56.777s31.79 29.028 44.047 38.996c12.258 9.968 22.024 16.838 29.298 20.609s12.393 4.31 15.356 1.616c5.388-5.119 3.368-14.682-6.062-28.691s-21.956-34.349-37.582-61.020c-9.429-16.703-19.060-34.147-28.893-52.332s-17.646-36.235-23.438-54.15c-5.792-17.915-7.813-35.157-6.062-51.725s9.227-31.587 22.428-45.058c20.744-20.744 47.28-25.795 79.609-15.154z" />
<glyph unicode="&#xe938;" glyph-name="notification" d="M568.097 160.356v-19.119c0-42.639-34.399-77.236-76.794-77.236-40.275 0-73.334 31.224-76.539 70.904l-0.255 6.332v19.119h153.587zM493.392 832c23.433 0 42.742-17.849 45.213-40.785l0.267-4.988v-13.517l8.048-2.2 7.773-2.5h1.497c84.331-25.497 143.525-102.266 145.419-195.255l0.354-40.146 0.074-60.307c0-60.18 19.915-130.467 55.712-172.768 8.987-10.609 17.46-18.899 24.925-25.829l10.379-9.494c4.749-4.357 8.791-8.217 11.917-11.985 6.475-5.56 10.812-13.486 10.812-22.733 0-16.65-13.439-30.167-30.025-30.167l-0.916 0.184-0.733-0.184-583.344 0.015c-0.409-0.015-0.683 0.169-0.989 0.169-1.924 0.123-3.757 0.492-5.528 1.106-13.378 3.041-23.58 14.5-23.58 28.877 0 4.078 1.014 7.81 2.577 11.275l1.73 3.378c2.583 5.926 7.771 11.405 14.751 17.915l14.325 13.153c7.071 6.625 14.979 14.479 23.307 24.32 33.589 39.657 53.164 103.911 55.48 161.375l0.232 11.393 0.145 74.726 0.282 25.728c1.826 89.668 56.961 164.253 136.484 192.328l8.935 2.926h1.191l8.728 2.772 9.049 2.358v13.087c0 25.282 20.373 45.772 45.51 45.772z" />
<glyph unicode="&#xe939;" glyph-name="nutrition-food" d="M585.846 108.308v-44.308h-295.385v44.308h295.385zM910.769 182.154v-88.615h-280.615c25.887 0.044 48.846 17.89 57.002 44.308 3.113 9.846 6.532 19.692 10.215 29.538l5.718 14.769h207.68zM748.308 300.308c-37.585-41.794-67.080-89.584-87.155-141.132l-5.739-15.575-1.707-3.934c-4.612-8.807-13.49-14.909-23.702-16.292l-4.45-0.299h-359.767c-13.641-0.117-25.808 8.172-30.124 20.525-18.179 52.277-45.909 101.020-81.863 143.991l-11.031 12.716h605.538zM663.385 595.692v-132.923c0-22.023 17.358-39.877 38.769-39.877 19.882 0 36.269 15.394 38.508 35.226l0.261 4.65v26.585c0 7.341 5.786 13.292 12.923 13.292 6.118 0 11.242-4.372 12.582-10.245l0.341-3.048v-106.338c0-22.023 17.358-39.877 38.769-39.877 19.882 0 36.269 15.394 38.508 35.226l0.261 4.65v53.169c0 7.051 2.723 13.813 7.57 18.798s11.421 7.786 18.276 7.786c7.288 0.031 14.461 1.684 21.035 4.818l4.811 2.626v-273.29h-182.991c13.31 26.609 29.113 51.801 47.176 75.221l11.107 13.837 18.222 21.932c3.295 3.943 4.052 9.5 1.938 14.223-1.696 3.769-4.974 6.45-8.802 7.365l-2.958 0.345h-25.846c0 34.666-25.804 63.134-58.734 66.19l-5.881 0.272-5.316 3.647c-19.981 12.288-45.066 12.635-65.503 0.474-7.877 4.831-16.657 7.826-25.723 8.812l-6.844 0.36v186.092h77.538zM172.308 329.846c5.524 17.65 20.277 29.469 36.849 29.522l1.837-0.234 1.822-0.356 4.965-0.034c3.288 0.414 6.331 2.229 8.489 5.084l1.442 2.33c10.506 20.665 33.605 28.232 52.268 17.123 4.866-2.839 10.677-1.914 14.646 2.049l1.818 2.231c7.308 10.511 18.484 16.649 30.315 16.649s23.008-6.138 30.315-16.649c3.971-5.576 10.91-7.131 16.464-3.69 15.997 10.084 36.071 6.006 47.956-9.742 1.163-1.489 2.565-2.681 4.113-3.526 4.418 10.764 14.984 18.32 27.315 18.32 0 11.029 6.044 20.646 15.001 25.719l-0.232 3.819c0 16.314 13.225 29.538 29.538 29.538s29.538-13.225 29.538-29.538c11.606 0 21.649-6.694 26.479-16.432 1.287-1.807 2.454-3.725 3.491-5.759 2.094-4.19 5.821-6.897 9.932-7.414l4.703 0.034c10.138 1.353 20.317-2.124 28.094-9.595 4.798-4.397 11.666-4.397 16.464 0 14.743 13.928 36.354 13.295 50.439-1.476 2.034-2.053 4.566-3.319 7.233-3.661l5.965-0.029c20.104 0 36.673-17.095 38.937-39.119l0.264-5.164h-546.462zM896 595.692v-78.19c0-12.955-9.373-23.702-21.654-25.722l-4.192-0.341c-26.765 0-48.778-20.512-51.425-46.797l-0.267-5.33v-52.127c0-7.197-5.786-13.032-12.923-13.032-6.118 0-11.242 4.287-12.582 10.044l-0.341 2.988v104.253c0 21.592-17.358 39.095-38.769 39.095-19.882 0-36.269-15.092-38.508-34.536l-0.261-4.559v-26.063c0-7.197-5.786-13.032-12.923-13.032-6.118 0-11.242 4.287-12.582 10.044l-0.341 2.988v130.317h206.769zM162.897 566.154l157.103-146.581c-15.017-0.822-29.28-6.426-40.421-15.881-3.455 1.29-7.024 2.286-10.663 2.976l-5.505 0.805-135.411 126.037 34.897 32.644zM896 669.538v-44.308h-310.154v44.308h310.154zM854.2 743.385l35.298-44.308h-303.651l35.298 44.308h233.056zM836.923 832v-59.077h-206.769v59.077h206.769z" />
<glyph unicode="&#xe93a;" glyph-name="personal-household" d="M184.896 306.036c10.561 0 19.035-7.585 20.788-17.938l0.333-4.003v-69.251c0-3.291 1.69-5.705 4.393-6.538l2.207-0.318h382.827c3.168 0 5.492 1.755 6.294 4.564l0.306 2.293v69.251c0 10.97 7.301 19.774 17.268 21.595l3.853 0.346h42.243c29.042 0 52.144-23.998 53.464-53.481 0-28.283-20.884-51.143-46.881-53.89l-5.263-0.277v-54.852c0-20.253-14.060-36.417-32.317-39.862l-4.646-0.591v-22.627c0-7.799-5.559-14.549-12.697-16.114l-3.144-0.341h-36.303c-7.508 0-14.005 5.775-15.512 13.189l-0.329 3.266v21.941h-314.182v-21.941c0-7.799-5.559-14.549-12.697-16.114l-3.144-0.341h-36.303c-7.508 0-14.005 5.775-15.512 13.189l-0.329 3.266v21.941c-18.887 0.633-34.4 15.872-36.675 35.469l-0.287 4.984v54.852c-29.042 0-52.144 24.684-52.144 54.167 0 28.283 20.884 51.143 46.881 53.89l5.263 0.277h42.243zM875.893 104.421v-26.457h-104.87v26.457h104.87zM836.567 593.883v-463.005h-26.217v463.005h26.217zM384.637 427.055v-188.251h-147.993v42.97c0 28.135-19.88 50.875-46.327 53.608l-5.373 0.275h-14.218v50.473c0 20.9 15.045 38.272 34.27 40.647l4.506 0.277h175.136zM599.764 427.055c19.863 0 36.373-15.879 38.63-36.169l0.263-4.755v-50.473h-14.261c-26.131 0-48.274-20.982-50.94-48.333l-0.269-5.551v-42.97h-148.441v188.251h175.018zM600.61 752.628v-185.202h-314.609v185.202h314.609zM574.392 726.17h-262.174v-132.287h262.174v132.287zM903.487 832l23.307-211.659h-206.672l23.307 211.659h160.057zM548.175 699.713v-79.372h-209.74v79.372h209.74z" />
<glyph unicode="&#xe93b;" glyph-name="photo" d="M846.731 64c43.947 0 77.367 11.71 100.261 35.131s34.341 57.603 34.341 102.549v492.641c0 44.946-11.447 79.129-34.341 102.549s-56.315 35.131-100.261 35.131h-669.461c-43.947 0-77.367-11.71-100.261-35.131s-34.341-57.603-34.341-102.549v-492.641c0-44.946 11.447-79.129 34.341-102.549s56.315-35.131 100.261-35.131h669.461zM360.819 442.111c-18.158 0-34.736 4.603-49.736 13.809s-26.973 21.525-35.92 36.958c-8.947 15.433-13.421 32.626-13.421 51.579 0 18.682 4.474 35.672 13.421 50.97s20.921 27.617 35.92 36.958c15 9.341 31.578 14.012 49.736 14.012s34.736-4.671 49.736-14.012c15-9.341 26.907-21.66 35.723-36.958s13.223-32.288 13.223-50.97c0-18.953-4.408-36.146-13.223-51.579s-20.723-27.753-35.723-36.958c-15-9.206-31.578-13.809-49.736-13.809zM836.862 157.005h-649.33c-16.842 0-30.131 5.009-39.868 15.027s-14.605 23.827-14.605 41.426v38.583l103.024 93.005c8.684 7.852 17.368 13.741 26.052 17.667s17.631 5.889 26.842 5.889c19.736 0 38.289-7.987 55.657-23.962l74.209-69.043 185.128 169.358c18.421 16.787 39.078 25.18 61.973 25.18 10.526 0 21.118-2.098 31.776-6.295s20.46-10.627 29.407-19.291l164.207-155.956v-75.541c0-17.328-5.066-31.002-15.197-41.020s-23.223-15.027-39.276-15.027z" />
<glyph unicode="&#xe93c;" glyph-name="contracting" horiz-adv-x="1067" d="M493.239 874.667c-25.165 0-45.883-20.648-45.883-44.987v-1.484c-87.336-43.514-142.115-130.54-142.115-225.682v-28.767c0 0 0.006-0.735-1.474-0.735l-16.292-4.422c-9.622-2.95-16.277-11.066-16.277-21.391v-73.019c0-12.538 9.622-22.126 22.204-22.126h547.701c12.582-0.738 22.204 9.591 22.204 21.391v73.019c0 9.588-6.655 18.441-16.277 21.391l-16.292 4.422c-0.74 0-1.474 0.735-1.474 0.735v29.501c0 95.142-55.507 182.168-141.363 225.682v1.484c0 25.076-20.732 44.987-45.897 44.987h-148.764zM491.765 830.415h148.764c1.48 0 1.474-0.735 1.474-0.735v-16.234c0-1.475-0.003-2.947 0.737-4.422v-101.785c0-12.538 9.622-22.126 22.204-22.126s22.204 9.588 22.204 22.126v30.25c33.306-37.614 52.561-85.554 52.561-136.443v-28.767c0-2.95 0.737-5.909 0.737-8.859h-271.639c-12.582 0-22.204-9.588-22.204-22.126s9.622-22.126 22.204-22.126h305.682v-23.595h-458.884v33.924c19.984 5.163 33.306 23.604 33.306 43.517v29.501c0 70.803 37.004 136.438 96.955 174.789v-68.582c0-12.538 9.622-22.126 22.204-22.126s22.204 9.588 22.204 22.126v120.958c0 0.735 0.749 0.735 1.489 0.735zM345.53 404.101c-2.81 0.115-5.681-0.349-8.457-1.455-11.842-4.425-17.769-16.969-13.328-28.032 80.675-224.947 196.879-249.277 243.508-249.277s162.83 24.33 244.245 249.277c4.441 11.801-2.226 24.344-13.328 28.032-11.842 4.425-24.416-2.218-28.116-13.281-71.793-198.396-165.793-219.776-202.8-219.776s-131.010 21.38-202.063 219.776c-3.331 8.85-11.229 14.391-19.66 14.736zM651.631 132.712c-0.74 0-1.486-0.012-2.226-0.749-0.74 0-1.472-0.735-2.212-0.735s-1.486-0.735-2.226-0.735c-0.74 0-1.486-0.735-2.226-0.735s-1.474-0.746-1.474-1.484c-0.74-0.738-1.474-0.732-1.474-1.469l-1.489-1.469c-0.74-0.738-0.734-1.484-1.474-1.484-0.74-0.738-0.749-1.469-1.489-1.469-0.74-0.738-0.737-1.481-0.737-2.218 0 0 0.003-0.735-0.737-0.735v-1.469c0-0.738 0.003-0.746-0.737-1.484-10.362-37.614-42.185-50.893-67.349-50.893-25.905 0-57.002 13.278-67.364 50.893 0 0.738 0.003 0.735-0.737 0.735v1.484c0 0 0.003 0.735-0.737 0.735 0 0.738-0.737 1.481-0.737 2.218s-0.749 1.469-1.489 1.469c-0.74 0.738-0.734 1.469-1.474 1.469l-1.474 1.484c-0.74 0.738-1.489 0.732-1.489 1.469l-1.474 1.484c-0.74 0.738-1.486 0.735-2.226 0.735s-1.474 0.735-1.474 0.735c-0.74 0-1.486 0.735-2.226 0.735s-1.474-0.003-1.474 0.735h-6.664c-0.74 0-1.486 0.003-2.226-0.735h-0.737c-0.74 0-0.734 0.003-1.474-0.735h-1.489l-164.304-66.378c-11.102-4.425-17.020-17.704-11.839-28.767 3.701-8.85 11.834-14.016 20.715-14.016 2.961 0 5.933 0.746 8.153 1.484l143.575 58.268c19.244-36.877 57.002-59.752 100.67-59.752 45.888 0 82.887 22.872 102.13 60.486l143.589-58.268c2.961-1.475 5.918-1.469 8.139-1.469 8.882 0 17.029 5.151 20.73 14.002 4.441 11.063-0.737 24.341-11.839 28.767l-164.319 66.378h-1.474c-0.74 0-0.749-0.003-1.489 0.735h-0.737c-0.74 0-1.472 0.012-2.212 0.749h-6.664z" />
<glyph unicode="&#xe93d;" glyph-name="real-estate" d="M430.188 746.667c10.499 0 19.664-8.091 21.571-18.279l0.363-3.907v-626.347h55.68v105.813h38.807v-105.813h56.524v105.813h38.807v-105.813h56.524v105.813h38.807v-105.813h57.367v476.16h-285.993v42.667h307.927c10.499 0 18.997-7.417 20.756-17.455l0.334-3.878v-497.493h13.498l21.935-34.133h-742.4l21.935 34.133h14.342v626.347c0 10.619 7.999 19.89 18.072 21.819l3.863 0.368h241.28zM348.356 161.28h-77.615v-63.147h77.615v63.147zM413.316 265.387h-206.691v-50.347h206.691v50.347zM547.454 306.347v-39.253h-38.807v39.253h38.807zM641.941 306.347v-39.253h-38.807v39.253h38.807zM737.272 306.347v-39.253h-38.807v39.253h38.807zM413.316 369.493h-206.691v-50.347h206.691v50.347zM547.454 408.747v-39.253h-38.807v39.253h38.807zM641.941 408.747v-39.253h-38.807v39.253h38.807zM737.272 408.747v-39.253h-38.807v39.253h38.807zM413.316 473.6h-206.691v-50.347h206.691v50.347zM547.454 512v-39.253h-38.807v39.253h38.807zM641.941 512v-39.253h-38.807v39.253h38.807zM737.272 512v-39.253h-38.807v39.253h38.807zM413.316 577.707h-206.691v-50.347h206.691v50.347zM413.316 681.813h-206.691v-50.347h206.691v50.347zM667.25 832c10.499 0 18.997-7.417 20.756-17.455l0.334-3.878v-155.307h-42.182v133.973h-283.462v42.667h304.553z" />
<glyph unicode="&#xe93e;" glyph-name="renew-license" d="M850.633 64c43.039 0 75.582 11.3 97.629 33.9s33.071 55.953 33.071 100.058v500.083c0 44.105-11.024 77.457-33.071 100.058s-54.591 33.9-97.629 33.9h-677.266c-43.039 0-75.582-11.3-97.629-33.9s-33.071-55.953-33.071-100.058v-500.083c0-44.105 11.024-77.457 33.071-100.058s54.591-33.9 97.629-33.9h677.266zM845.484 146.183h-667.364c-18.219 0-32.147 4.862-41.785 14.587s-14.456 24.586-14.456 44.584v485.291c0 19.998 4.819 34.859 14.456 44.584s23.566 14.587 41.785 14.587h667.364c18.219 0 32.147-4.862 41.785-14.587s14.456-24.586 14.456-44.584v-485.291c0-19.998-4.819-34.859-14.456-44.584s-23.566-14.587-41.785-14.587zM226.439 357.393c7.921 0 15.842 3.972 23.764 11.917l154.86 160.668 22.972 26.299-3.168-80.128v-37.804c0-9.588 2.904-17.532 8.713-23.833s13.334-9.451 22.576-9.451c8.977 0 16.371 3.15 22.179 9.451s8.713 14.245 8.713 23.833v189.021c0 9.862-3.036 17.875-9.109 24.039s-13.73 9.246-22.972 9.246h-187.337c-9.241 0-16.767-3.013-22.576-9.040s-8.713-13.834-8.713-23.422c0-9.314 2.97-16.984 8.911-23.011s13.4-9.040 22.377-9.040h36.834l81.589 2.876-24.952-23.422-154.86-160.257c-7.657-8.218-11.486-16.437-11.486-24.655 0-8.766 3.168-16.505 9.505-23.217s13.73-10.067 22.179-10.067zM760.331 236.584c9.241 0 16.833 3.013 22.774 9.040s8.911 13.697 8.911 23.011c0 9.588-3.036 17.395-9.109 23.422s-13.598 9.040-22.576 9.040h-36.834l-81.193-3.287 24.556 23.833 154.86 160.257c7.657 7.944 11.486 16.163 11.486 24.655 0 8.766-3.102 16.437-9.307 23.011s-13.664 9.862-22.377 9.862c-7.921 0-15.71-3.835-23.368-11.506l-154.86-161.079-22.972-26.299 2.772 80.539v37.804c0 9.588-2.838 17.464-8.515 23.628s-13.136 9.246-22.377 9.246c-9.241 0-16.767-3.082-22.576-9.246s-8.713-14.040-8.713-23.628v-189.432c0-9.588 3.036-17.464 9.109-23.628s13.73-9.246 22.972-9.246h187.337z" />
<glyph unicode="&#xe93f;" glyph-name="reserve-trade-name" d="M706.668 64c38.040 0 66.865 9.864 86.475 29.593s29.416 48.731 29.416 87.007v321.802c0 16.539-1.004 30.597-3.012 42.174s-5.671 22.15-10.987 31.719c-5.316 9.569-13.172 19.67-23.568 30.302l-185 187.836c-10.16 10.16-19.965 17.957-29.416 23.391s-19.788 9.156-31.011 11.164c-11.223 2.008-24.277 3.012-39.162 3.012h-171.179c-38.276 0-67.16-9.923-86.653-29.77s-29.239-48.79-29.239-86.83v-534.8c0-38.276 9.746-67.278 29.239-87.007s48.377-29.593 86.653-29.593h377.443zM700.643 135.236h-365.748c-16.775 0-29.416 4.312-37.922 12.936s-12.759 21.087-12.759 37.39v524.877c0 16.066 4.253 28.53 12.759 37.39s21.264 13.29 38.276 13.29h150.269v-192.797c0-25.754 6.32-44.892 18.961-57.414s31.719-18.784 57.237-18.784h189.962v-306.562c0-16.303-4.253-28.766-12.759-37.39s-21.264-12.936-38.276-12.936zM742.109 554.145h-173.659c-7.324 0-12.641 1.654-15.948 4.962s-4.962 8.624-4.962 15.948v176.849l194.569-197.759zM642.52 354.614c6.379 0 11.695 2.186 15.948 6.557s6.379 9.746 6.379 16.126c0 6.143-2.126 11.341-6.379 15.594s-9.569 6.379-15.948 6.379v0h-255.882c-6.616 0-12.109-2.126-16.48-6.379s-6.557-9.451-6.557-15.594c0-6.379 2.186-11.754 6.557-16.126s9.864-6.557 16.48-6.557v0h255.882zM642.52 236.242c6.379 0 11.695 2.126 15.948 6.379s6.379 9.451 6.379 15.594c0 6.379-2.126 11.814-6.379 16.303s-9.569 6.734-15.948 6.734v0h-255.882c-6.616 0-12.109-2.245-16.48-6.734s-6.557-9.923-6.557-16.303c0-6.143 2.186-11.341 6.557-15.594s9.864-6.379 16.48-6.379v0h255.882z" />
<glyph unicode="&#xe940;" glyph-name="settings" d="M859.902 510.005l-40.008 1.961c-21.088 2.549-39.070 16.48-46.807 36.262-1.751 4.571-3.617 9.083-5.599 13.536-8.502 19.466-5.629 42.028 7.478 58.743l26.881 29.653c13.399 15.067 12.839 37.939-1.282 52.332l-34.074 34.075c-14.394 14.121-37.265 14.681-52.332 1.282l-29.653-26.882c-16.715-13.107-39.277-15.979-58.743-7.478-4.454 1.982-8.969 3.849-13.544 5.602-19.781 7.737-33.708 25.719-36.253 46.805l-1.961 40.007c-1.179 20.129-17.748 35.905-37.911 36.098h-48.19c-20.163-0.193-36.731-15.969-37.91-36.098l-1.96-40.007c-2.549-21.089-16.48-39.071-36.263-46.808-4.571-1.751-9.083-3.617-13.535-5.599-19.466-8.501-42.028-5.629-58.743 7.478l-29.653 26.882c-15.068 13.399-37.939 12.839-52.332-1.282l-34.073-34.074c-14.121-14.393-14.681-37.265-1.281-52.332l26.881-29.653c13.107-16.716 15.979-39.278 7.477-58.744-1.981-4.454-3.849-8.969-5.602-13.544-7.736-19.78-25.718-33.709-46.804-36.253l-40.006-1.961c-20.129-1.18-35.905-17.748-36.098-37.911v-48.188c0.193-20.163 15.969-36.731 36.098-37.91l40.006-1.961c21.089-2.549 39.071-16.48 46.808-36.262 1.75-4.571 3.616-9.083 5.598-13.536 8.502-19.466 5.63-42.028-7.477-58.743l-26.881-29.653c-13.4-15.067-12.84-37.939 1.281-52.332l34.073-34.074c14.393-14.121 37.265-14.681 52.332-1.282l29.653 26.881c16.716 13.108 39.278 15.98 58.745 7.478 4.454-1.981 8.969-3.848 13.544-5.601 19.781-7.736 33.709-25.718 36.253-46.805l1.96-40.008c1.18-20.129 17.748-35.905 37.91-36.099h48.19c20.163 0.193 36.731 15.969 37.91 36.098l1.961 40.008c2.548 21.088 16.479 39.071 36.261 46.808 4.571 1.751 9.083 3.617 13.537 5.598 19.466 8.502 42.028 5.629 58.743-7.478l29.652-26.881c15.068-13.399 37.939-12.839 52.332 1.282l34.074 34.074c14.121 14.393 14.682 37.264 1.282 52.332l-26.881 29.653c-13.108 16.716-15.98 39.278-7.478 58.744 1.981 4.454 3.848 8.969 5.601 13.544 7.736 19.781 25.718 33.709 46.805 36.253l40.008 1.961c20.129 1.18 35.905 17.748 36.098 37.91v48.188c-0.193 20.163-15.969 36.731-36.098 37.911zM512 311.467c-75.405 0-136.533 61.128-136.533 136.533s61.128 136.533 136.533 136.533c75.405 0 136.533-61.128 136.533-136.533 0-36.211-14.385-70.939-39.99-96.544s-60.333-39.99-96.544-39.99v0z" />
<glyph unicode="&#xe941;" glyph-name="trade-name" d="M218.711 191.282c5.498 0 9.74 0.657 12.728 1.972s6.394 3.406 10.218 6.274l24.097 18.673 3.41-2.912c6.234-4.819 13.080-7.802 20.537-8.949 9.322-1.434 18.883 0 28.683 4.302l119.036 49.479c4.542 1.673 8.187 3.526 10.936 5.557s5.677 4.482 8.784 7.35l345.992 343.841c17.21 17.21 25.755 35.615 25.637 55.215-0.121 19.6-8.785 38.125-25.995 55.574l-77.803 78.162c-17.449 17.21-35.974 25.934-55.574 26.178-19.6 0.234-38.005-8.251-55.215-25.461l-346.351-343.841c-2.868-2.868-5.259-5.677-7.171-8.426s-3.824-6.394-5.737-10.936l-50.554-118.677c-4.063-9.561-5.438-19.062-4.123-28.504 1.052-7.553 4.054-14.456 9.007-20.709l2.45-2.784-51.434-53.772c-5.498-5.976-7.111-12.071-4.84-18.286s7.709-9.322 16.314-9.322h46.969zM731.908 633.607l-101.536 101.781 23.966 23.823c4.781 4.302 9.74 6.573 14.879 6.812s9.86-1.912 14.162-6.454l73.142-73.501c9.322-9.561 8.964-19.242-1.076-29.042l-23.539-23.42zM433.051 336.301l-101.577 102.107 260.021 258.348 101.455-101.903-259.899-258.552zM302.61 272.671c-2.629 0.239-5.498 1.793-8.605 4.661l-22.588 22.588c-2.868 2.868-4.422 5.677-4.661 8.426s0.239 5.677 1.434 8.784l32.036 74.65 85.994-86.402-74.647-31.274c-3.346-1.195-6.334-1.673-8.964-1.434zM847.592 64c8.605 0 16.015 3.227 22.23 9.681s9.322 13.983 9.322 22.588c0 8.605-3.107 16.015-9.322 22.23s-13.625 9.322-22.23 9.322h-688.040c-8.844 0-16.314-3.107-22.409-9.322s-9.143-13.625-9.143-22.23c0-8.605 3.048-16.134 9.143-22.588s13.565-9.681 22.409-9.681h688.040z" />
<glyph unicode="&#xe942;" glyph-name="foreign" d="M498.735 349.869c7.137-1.16 11.817-7.348 11.815-14.042l-0.294-2.887-41.776-186.978 53.632-52.992 53.632 52.992-41.809 187.295c-1.042 6.097 1.364 11.64 6.105 14.595l2.56 1.252 2.918 0.764c7.138 1.16 13.572-2.191 16.001-8.502l0.786-2.881 43.070-193.312c1.329-3.888 0.544-8.25-1.83-11.796l-2.070-2.486-69.368-69.17c-2.815-2.744-5.993-4.122-9.982-4.122-2.991 0-5.527 0.775-7.817 2.341l-2.216 1.831-70.081 70.040c-1.764 2.58-2.84 5.235-3.202 8.794l-0.124 3.891 43.261 193.99c1.207 7.060 7.478 11.589 13.994 11.641l2.794-0.258zM547.572 337.235l-0.766-0.243-0.332-0.467 0.016-0.794 42.535-190.464-1.749-5.948-60.652-59.904h-8.995l-60.652 59.904-1.749 5.948 42.512 190.355c0.146 0.711-0.347 1.497-1.257 1.648-0.608 0.118-1.214-0.083-1.598-0.494l-0.382-0.761-43.17-192.911c0-1.116 0.149-1.959 0.292-2.52l0.19-0.628 69.266-69.070c0.494-0.481 0.505-0.486 1.046-0.486l0.534 0.056 69.829 69.55 0.578 0.845 0.006 0.86-43.323 194.304c-0.141 0.79-0.386 1.179-0.984 1.277l-1.195-0.057zM531.81 838.4c44.089-1.596 85.126-20.659 115.515-53.491 32.746-35.12 49.109-82.982 45.023-131.584-7.634-97.501-35.109-166.977-82.857-207.757l-6.823-5.504 3.535-8.486 3.592-8.011c12.056-25.049 30.658-40.625 71.203-52.843l9.030-2.569 86.668-23.814c32.903-9.166 58.97-32.559 70.75-64.655l2.462-7.559 29.053-133.322c1.39-8.13-3.351-15.274-8.142-14.877-2.16-2.106-4.126-2.586-6.831-2.586-5.975 0-11.070 3.25-13.281 8.451l-0.855 2.757-28.24 132.4c-6.577 22.442-24.077 40.514-46.741 48.884l-6.305 2.038-39.296 10.729-15.903 4.1-32.241 8.982c-49.97 13.703-76.683 32.79-93.336 61.741l-3.419 6.356-3.961 8.483-3.469 8.311-2.485-1.277c-8.758-3.946-17.406-6.779-25.836-8.674l-8.352-1.588-8.182-1.002-8.47-0.389-7.27 0.114-6.456 0.502c-13.068 1.405-26.847 5.004-40.832 11.537l-2.112 1.076-3.999-9.598-3.936-8.359c-15.121-29.84-39.47-49.92-86.262-64.867l-10.375-3.126-15.848-4.427-32.492-8.703-6.065-1.454-33.034-9.225c-23.038-6.418-41.439-22.741-50.527-43.992l-2.442-6.518-29.125-132.003c-1.177-5.74-6.033-9.911-11.422-10.986l-2.724-0.272-2.602 0.083c-7.137 1.16-11.82 7.348-11.82 14.021l0.292 2.876 28.998 132.268 0.258 2.568c9.298 31.731 33.679 56.735 65.511 68.056l7.475 2.366 39.555 10.796 14.568 3.748 16.669 4.656 15.86 4.609c40.997 11.155 62.172 25.31 75.236 46.427l2.876 4.999 3.828 7.785 6.034 14.187-6.015 4.771c-42.57 35.811-69.173 95.838-79.723 178.444l-1.695 14.812-1.298 14.463c-1.006 11.769-0.737 23.641 1.118 32.421-0.862 2.348-1.084 4.879-0.429 7.662l0.956 2.869 0.179-0.513c5.587 32.746 20.652 63.832 43.179 89.173 28.066 30.323 65.191 48.898 105.595 52.832l10.166 0.677h18.348zM531.348 825.604h-17.655c-40.663-1.468-78.492-19.041-106.512-49.312-18.542-20.86-31.664-46.004-38.545-74.183l-2.286-10.707-0.578-0.959 0.4-3.352c-1.4-10.904-1.648-21.865-0.717-32.767 7.413-94.681 33.743-161.483 78.087-198.873l9.572-7.461 2.065-7.648-8.152-19.071-4.070-8.29c-13.682-25.58-35.584-42.651-76.884-55.272l-33.743-9.723-15.611-4.205-7.159-1.794-39.353-10.743c-28.837-8.033-51.603-28.351-61.614-53.499l-2.233-6.383-0.147-2.132-29.128-133.554c-0.097-0.474 0.090-0.981 0.132-1.277l-0.099-0.253h1.575c0.417 0 0.957 0.287 1.3 0.62l0.327 0.503 29.303 132.681c8.65 26.835 28.921 47.824 55.151 57.346l26.405 7.812 13.645 3.643 6.12 1.465 32.201 8.629 15.754 4.401c46.95 13.351 70.872 30.356 85.591 55.725l3.018 5.566 3.743 7.942 6.578 15.681 8.989 3.131c12.219-6.729 24.315-10.875 35.776-13.030l8.469-1.252 5.861-0.466 6.474-0.102 7.811 0.364c11.907 1.066 24.79 4.216 38.027 10.186l7.98 3.926 8.918-3.176 5.975-14.294 3.774-8.077c13.636-27.103 35.333-45.069 78.961-58.53l9.689-2.817 32.146-8.956 15.871-4.091 39.417-10.761c27.614-7.693 49.822-27.478 59.806-53.495l2.237-6.631 28.367-132.914c0.098-0.477 0.313-0.776 0.757-0.922l0.481-0.066 1.706 0.642c0.675 0.11 1.002 0.301 1.096 0.719l-0.021 0.816-29.149 134.27-2.173 6.461c-8.426 21.915-25.395 39.579-47.257 49.598l-7.464 3.052-7.074 2.259-86.613 23.799c-46.969 12.633-70.562 29.462-85.424 56.432l-3.056 5.937-3.745 8.355-3.179 7.801-1.366 2.993-0.942 2.34 2.176 7.927 3.524 2.432c48.676 37.078 77.174 105.228 84.934 204.341 3.788 45.057-11.357 89.355-41.642 121.837-28.106 30.366-65.936 47.939-106.599 49.408zM459.492 390.525c2.696 6.571 10.58 10.196 17.361 8.161l46.028-19.721 44.183 18.933c4.919 1.918 10.391 1.079 14.726-2.232l2.451-2.281 2.097-2.86c2.423-5.906 0.671-12.594-4.509-17.052l-2.872-2.030-49.21-20.186c-1.205-1.175-2.498-1.834-4.006-2.199l-2.438-0.355-2.864 0.050-0.913 0.098c-1.397 0.227-2.694 0.662-3.064 0.925l-49.435 21.605c-7.681 2.995-11.521 12.825-7.534 19.144zM473.209 386.412c-0.368 0.215-1.681-0.273-2.345-1.67-0.072-0.117 0.089-0.628 0.418-1.041l0.614-0.484 51.548-22.794-1.031 0.778-0.74 0.277 0.524-0.005 51.048 21.396 0.946 0.799 0.773 1.074c-0.48 0.779-1.278 1.257-2.022 1.386l-1.029-0.072-46.474-19.968h-5.053l-47.179 20.324zM674.039 691.218l0.911-11.324c0.668-8.297 0.693-16.658 0.069-25.017-7.245-95.758-35.657-165.518-82.819-201.194-16.935-13.055-34.396-20.578-51.203-23.964l-7.16-1.202-6.299-0.615-7.736-0.138-4.073 0.169-5.961 0.608c-18.953 2.549-39.181 10.246-58.456 25.106-47.208 35.711-75.62 105.471-82.865 201.227-0.426 5.613-0.546 11.211-0.356 16.763l0.518 8.289 0.738 8.106 7.703-2.63c29.321-10.012 53.511-15.195 76.548-15.195 9.919 0 18.604 0.882 27.048 2.937 12.374 2.585 24.125 6.983 34.82 12.962l8.24 5.050 7.73-0.59c16.624-14.78 38.991-24.225 61.718-26.142l10.714-0.364c19.082 0.532 37.967 6.114 54.18 16.008l6.778 4.502 9.213 6.647zM526.635 677.973l-4.942-3.055c-11.79-6.591-24.737-11.442-38.222-14.257-9.317-2.271-18.997-3.254-29.873-3.254-21.162 0-42.889 4.008-67.895 11.719l-4.86 1.593-0.008-7.177 0.375-7.7c6.995-92.446 34.049-158.872 77.87-192.022 14.932-11.512 30.381-18.223 44.97-21.317l7.216-1.251 5.354-0.556 3.304-0.138 6.847 0.11 5.568 0.559c16.644 2.242 34.579 9.127 52.092 22.628 43.775 33.114 70.829 99.54 77.823 191.98 0.191 2.565 0.316 5.13 0.375 7.693l-0.060 4.46-5.781-3.28c-13.516-6.906-28.354-11.285-43.573-12.848l-9.17-0.598h-2.363c-25.839 0-51.91 8.931-72.208 24.358l-2.841 2.352zM513.462 822.272h16.672c39.228-0.798 76.426-18.19 103.822-48.139 16.862-18.267 29.033-40.309 35.686-64.313l2.511-10.402-2.039-6.096c-18.584-16.363-42.902-25.93-66.855-25.93-23.489 0-45.892 7.344-63.407 20.913l-6.331 5.378 4.549 5.154-1.895 2.071c11.936 10.796 20.752 23.646 25.602 37.087l2.091 6.763c0.267 1.563-0.269 2.467-1.020 2.588-1.769 0.287-2.801-0.295-3.005-1.38-8.539-34.133-40.584-61.88-80.5-69.988-24.277-5.146-49.891-2.722-80.824 5.863l-11.857 3.506-11.585 3.78-4.304 7.27c5.494 29.144 18.925 56.273 38.718 77.715 26.957 29.469 63.916 46.538 103.971 48.16zM657.309 706.393c-5.239 18.908-14.199 36.479-26.406 51.681l-6.372 7.398c-25.089 27.427-58.989 43.277-94.527 44l-16.282 0.005c-36.398-1.479-70.141-17.062-94.806-44.026-15.894-17.218-27.332-38.463-33.33-61.466l-1.031-4.465 6.001-1.98c30.562-9.552 55.316-13.405 77.838-10.455l8.348 1.427c32.999 6.703 59.634 28.307 68.874 54.425l1.71 5.662c1.402 8.203 9.391 12.713 17.575 11.383 8.289-1.347 12.975-9.239 11.474-17.891-4.152-16.191-12.855-31.402-25.164-44.378l-1.067-1.008 3.498-2.476c12.2-7.814 26.64-12.545 41.916-13.737l7.701-0.299c18.177 0 36.78 6.424 52.061 17.641l3.368 2.754-1.379 5.806z" />
<glyph unicode="&#xe943;" glyph-name="user-group" d="M671.163 460.599c24.549 0 46.917 6.543 67.104 19.629s36.266 30.585 48.236 52.496c11.97 21.912 17.955 46.156 17.955 72.734 0 26.172-5.985 49.91-17.955 71.213s-28.049 38.294-48.236 50.975c-20.187 12.68-42.555 19.020-67.104 19.020s-46.917-6.391-67.104-19.173c-20.187-12.782-36.266-29.875-48.236-51.279s-17.955-45.193-17.955-71.365c0.203-26.375 6.239-50.518 18.107-72.43s27.897-39.36 48.084-52.344c20.187-12.985 42.555-19.477 67.104-19.477zM318.448 453.904c21.303 0 40.729 5.731 58.279 17.194s31.599 26.781 42.149 45.953c10.55 19.173 15.825 40.526 15.825 64.061 0 22.723-5.224 43.468-15.673 62.235s-24.448 33.73-41.997 44.888c-17.55 11.159-37.077 16.738-58.583 16.738-21.303 0-40.78-5.63-58.431-16.89s-31.701-26.324-42.149-45.193c-10.449-18.868-15.571-39.664-15.369-62.387 0-23.332 5.224-44.533 15.673-63.604s24.448-34.338 41.997-45.801c17.55-11.463 36.976-17.194 58.279-17.194zM671.163 514.161c-13.999 0-26.882 4.007-38.65 12.021s-21.201 18.919-28.302 32.715c-7.101 13.796-10.651 29.215-10.651 46.258 0 16.434 3.55 31.295 10.651 44.584s16.535 23.89 28.302 31.802c11.767 7.913 24.651 11.869 38.65 11.869 14.202 0 27.187-3.855 38.954-11.564s21.151-18.209 28.15-31.498c7-13.289 10.499-28.252 10.499-44.888 0-16.839-3.55-32.208-10.651-46.106s-16.484-24.904-28.15-33.019c-11.666-8.115-24.6-12.173-38.802-12.173zM318.448 506.553c-11.362 0-21.861 3.297-31.498 9.891s-17.397 15.521-23.281 26.781c-5.884 11.26-8.825 23.687-8.825 37.28 0 13.188 2.891 25.259 8.673 36.215s13.492 19.68 23.129 26.172c9.637 6.492 20.238 9.738 31.802 9.738 11.767 0 22.469-3.195 32.107-9.586s17.347-14.963 23.129-25.716c5.782-10.753 8.673-22.825 8.673-36.215 0-13.999-2.891-26.629-8.673-37.889s-13.543-20.187-23.281-26.781c-9.738-6.594-20.39-9.891-31.954-9.891zM387.226 174.227c-5.478 3.246-10.246 7.71-14.303 13.39s-7.152 11.869-9.282 18.564c-2.13 6.695-2.79 13.492-1.978 20.39h-213.333c-3.043 0-5.174 0.659-6.391 1.978s-1.826 3.195-1.826 5.63c0 17.448 4.666 34.237 13.999 50.366s22.267 30.686 38.802 43.671c16.535 12.985 35.505 23.23 56.909 30.737s44.178 11.26 68.321 11.26c11.362 0 22.622-0.913 33.78-2.739s21.861-4.463 32.107-7.913c10.246-3.449 19.731-7.608 28.455-12.477 5.072 7.507 10.854 14.456 17.347 20.846s13.999 12.325 22.52 17.803c-12.985 7.913-26.832 14.608-41.541 20.086s-29.875 9.586-45.497 12.325c-15.622 2.739-31.346 4.108-47.171 4.108-32.056 0-62.184-5.224-90.385-15.673s-52.953-24.752-74.256-42.91c-21.303-18.158-37.99-38.751-50.062-61.778s-18.107-47.221-18.107-72.582c0-18.26 5.478-32.005 16.434-41.236s27.288-13.847 48.997-13.847h236.462zM860.759 174.227c51.939 0 77.908 17.55 77.908 52.649 0 20.897-6.239 42.707-18.716 65.43s-30.433 43.925-53.866 63.604c-23.433 19.68-51.583 35.606-84.451 47.779s-69.691 18.26-110.471 18.26c-40.78 0-77.654-6.087-110.623-18.26s-61.119-28.1-84.451-47.779c-23.332-19.68-41.287-40.881-53.866-63.604s-18.868-44.533-18.868-65.43c0-35.099 26.071-52.649 78.212-52.649h379.192zM870.193 227.485h-398.060c-3.652 0-6.239 0.609-7.76 1.826s-2.282 3.246-2.282 6.087c0 11.564 4.616 24.904 13.847 40.019s22.723 29.773 40.476 43.975c17.752 14.202 39.613 25.969 65.583 35.302s55.692 13.999 89.168 13.999c33.476 0 63.148-4.666 89.016-13.999s47.729-21.1 65.583-35.302c17.854-14.202 31.346-28.86 40.476-43.975s13.695-28.455 13.695-40.019c0-2.84-0.761-4.869-2.282-6.087s-4.007-1.826-7.456-1.826z" />
</font>
</defs>
</svg>
